The Subways – Young For Eternity




Artist: The Subways
Year: 2005
Genre: Rock
Notes: Discogs
Add. Notes:
Cover incl.: Yes
Encoder: FLAC
Bitrate: ~1000 kBit/s (44.1 kHz/16 Bit/s)
Log & Cue incl.: Yes
Size: 265,58 MB
Password: “slam” (without ” “)


All Downloads/Hosters are compatible

Download 1
Turbobit.net
Rapidgator.net
KatFile.com
UploadRar.com
Download 2
Turbobit.net
Rapidgator.net
KatFile.com
UploadRar.com

Tracklist:

1 - Want To Hear What You Have Got To Say - 3:25
2 - Holiday - 1:53
3 - Rock And Roll Queen - 2:50
4 - Mary - 3:00
5 - Young For Eternity - 2:09
6 - Lines Of Light - 2:13
7 - Oh Yeah - 2:59
8 - City Pavement - 2:45
9 - No Goodbyes - 3:32
10 - With You - 3:02
11 - She Sun - 3:21
12 - Somewhere - 4:46
13 - (Encore) At 1 AM - 1:52

EAC-Log, CUE-Sheed & NFO:

Click to open spoiler
This log is created by Rubyripper, version 0.6.2
Website: http://code.google.com/p/rubyripper

Cdrom player used to rip:
HL-DT-ST DVDRAM GSA-T20N WC05
Cdrom offset used: 667

Ripper used: cdparanoia -Z
Matches required for all chunks: 2
Matches required for erroneous chunks: 3

Codec(s) used:
-flac -> –best -V (flac 1.2.1)

CDDB INFO

Artist = Subways
Album = Young For Eternity
Year = 2005
Genre = Rock
Tracks = 12 (12 selected)

01 – I Want to Hear What You Have Got to Say
02 – Holiday
03 – Rock and Roll Queen
04 – Mary
05 – Young For Eternity
06 – Lines of Light
07 – Oh Yeah
08 – City Pavement
09 – No Goodbyes
10 – With You
11 – She Sun
12 – Somewhere/At 1 AM

ADVANCED TOC ANALYSIS (with cdrdao)
…please be patient, this may take a while

Pregap detected for track 2 : 51 sectors
Pregap detected for track 3 : 163 sectors
Pregap detected for track 4 : 51 sectors
Pregap detected for track 5 : 7 sectors
Pregap detected for track 6 : 181 sectors
Pregap detected for track 8 : 126 sectors
Pregap detected for track 9 : 50 sectors
Pregap detected for track 10 : 84 sectors
Pregap detected for track 11 : 126 sectors
Pregap detected for track 12 : 51 sectors

STATUS

Starting to rip track 1, trial #1 (23 seconds)
Starting to rip track 1, trial #2 (22 seconds)
Analyzing files for mismatching chunks (0 second(s))
Every chunk matched 2 times 🙂
MD5 sum: 452e1df8601034891ce252c55fa91843

Starting to rip track 2, trial #1 (11 seconds)
Starting to rip track 2, trial #2 (11 seconds)
Analyzing files for mismatching chunks (0 second(s))
Every chunk matched 2 times 🙂
MD5 sum: 72d05b635a13ee21dc1d9e6bda16441a

Starting to rip track 3, trial #1 (16 seconds)
Starting to rip track 3, trial #2 (16 seconds)
Analyzing files for mismatching chunks (0 second(s))
Every chunk matched 2 times 🙂
MD5 sum: c72037eb424c6509c8be4c773d5e8904

Starting to rip track 4, trial #1 (17 seconds)
Starting to rip track 4, trial #2 (17 seconds)
Analyzing files for mismatching chunks (0 second(s))
Every chunk matched 2 times 🙂
MD5 sum: 31cd069cfe36a6e6db5d29ffd1fb6a46

Starting to rip track 5, trial #1 (11 seconds)
Starting to rip track 5, trial #2 (11 seconds)
Analyzing files for mismatching chunks (0 second(s))
Every chunk matched 2 times 🙂
MD5 sum: 35e5797c5747a4d5e45adc617bd1acef

Starting to rip track 6, trial #1 (12 seconds)
Starting to rip track 6, trial #2 (12 seconds)
Analyzing files for mismatching chunks (0 second(s))
Every chunk matched 2 times 🙂
MD5 sum: 7d887d1fc8fbf7bf925a4b20590d399b

Starting to rip track 7, trial #1 (15 seconds)
Starting to rip track 7, trial #2 (15 seconds)
Analyzing files for mismatching chunks (0 second(s))
Every chunk matched 2 times 🙂
MD5 sum: 6096ae0a9a760e1373d37fc174841cd6

Starting to rip track 8, trial #1 (13 seconds)
Starting to rip track 8, trial #2 (13 seconds)
Analyzing files for mismatching chunks (0 second(s))
Every chunk matched 2 times 🙂
MD5 sum: c732e90501e96d78579e0f5d75dbfc7d

Starting to rip track 9, trial #1 (16 seconds)
Starting to rip track 9, trial #2 (16 seconds)
Analyzing files for mismatching chunks (0 second(s))
Every chunk matched 2 times 🙂
MD5 sum: dce125d6bdd850a7106b3fed505f69da

Starting to rip track 10, trial #1 (13 seconds)
Starting to rip track 10, trial #2 (13 seconds)
Analyzing files for mismatching chunks (0 second(s))
Every chunk matched 2 times 🙂
MD5 sum: eec153560c65df97cb0062bcb5188080

Starting to rip track 11, trial #1 (14 seconds)
Starting to rip track 11, trial #2 (14 seconds)
Analyzing files for mismatching chunks (0 second(s))
Every chunk matched 2 times 🙂
MD5 sum: e2900942d95dfbb7861ff2c230a18697

Starting to rip track 12, trial #1 (140 seconds)
Starting to rip track 12, trial #2 (139 seconds)
Analyzing files for mismatching chunks (0 second(s))
Every chunk matched 2 times 🙂
MD5 sum: 0277c7b65dc1ae15b8a5d927681641f2

RIPPING SUMMARY

All chunks were tried to match at least 2 times.
Chunks that differed after 2 trials,
were tried to match 3 times.
None of the tracks gave any problems

REM GENRE Rock
REM DATE 2005
REM COMMENT “Rubyripper 0.6.2”
REM DISCID a309f80c
REM FREEDB_QUERY “a309f80c 12 150 15541 23990 36857 50349 59992 69959 83367 95725 111619 125282 140371 2554”
PERFORMER “Subways”
TITLE “Young For Eternity”
FILE “01 – I Want to Hear What You Have Got to Say.flac” WAVE
TRACK 01 AUDIO
TITLE “I Want to Hear What You Have Got to Say”
PERFORMER “Subways”
INDEX 01 00:00:00
FILE “02 – Holiday.flac” WAVE
TRACK 02 AUDIO
TITLE “Holiday”
PERFORMER “Subways”
INDEX 00 00:00:00
INDEX 01 00:00:51
FILE “03 – Rock and Roll Queen.flac” WAVE
TRACK 03 AUDIO
TITLE “Rock and Roll Queen”
PERFORMER “Subways”
INDEX 00 00:00:00
INDEX 01 00:02:13
FILE “04 – Mary.flac” WAVE
TRACK 04 AUDIO
TITLE “Mary”
PERFORMER “Subways”
INDEX 00 00:00:00
INDEX 01 00:00:51
FILE “05 – Young For Eternity.flac” WAVE
TRACK 05 AUDIO
TITLE “Young For Eternity”
PERFORMER “Subways”
INDEX 00 00:00:00
INDEX 01 00:00:07
FILE “06 – Lines of Light.flac” WAVE
TRACK 06 AUDIO
TITLE “Lines of Light”
PERFORMER “Subways”
INDEX 00 00:00:00
INDEX 01 00:02:31
FILE “07 – Oh Yeah.flac” WAVE
TRACK 07 AUDIO
TITLE “Oh Yeah”
PERFORMER “Subways”
INDEX 01 00:00:00
FILE “08 – City Pavement.flac” WAVE
TRACK 08 AUDIO
TITLE “City Pavement”
PERFORMER “Subways”
INDEX 00 00:00:00
INDEX 01 00:01:51
FILE “09 – No Goodbyes.flac” WAVE
TRACK 09 AUDIO
TITLE “No Goodbyes”
PERFORMER “Subways”
INDEX 00 00:00:00
INDEX 01 00:00:50
FILE “10 – With You.flac” WAVE
TRACK 10 AUDIO
TITLE “With You”
PERFORMER “Subways”
INDEX 00 00:00:00
INDEX 01 00:01:09
FILE “11 – She Sun.flac” WAVE
TRACK 11 AUDIO
TITLE “She Sun”
PERFORMER “Subways”
INDEX 00 00:00:00
INDEX 01 00:01:51
FILE “12 – SomewhereAt 1 AM.flac” WAVE
TRACK 12 AUDIO
TITLE “Somewhere/At 1 AM”
PERFORMER “Subways”
INDEX 00 00:00:00
INDEX 01 00:00:51


Leave a Reply

Your email address will not be published. Required fields are marked *

This site uses Akismet to reduce spam. Learn how your comment data is processed.