The Subways – All Or Nothing




Artist: The Subways
Year: 2008
Genre: Rock
Notes: Discogs
Add. Notes:
Cover incl.: Yes
Encoder: FLAC
Bitrate: ~1000 kBit/s (44.1 kHz/16 Bit/s)
Log & Cue incl.: Yes
Size: 286,92 MB
Password: “slam” (without ” “)


All Downloads/Hosters are compatible

Download 1
Turbobit.net
Rapidgator.net
KatFile.com
UploadRar.com
Download 2
Turbobit.net
Rapidgator.net
KatFile.com
UploadRar.com

Tracklist:

1 - Girls & Boys - 3:33
2 - Kalifornia - 2:54
3 - Alright - 2:51
4 - Shake! Shake! - 2:46
5 - Move To Newlyn - 2:44
6 - All Or Nothing - 3:12
7 - I Won't Let You Down - 3:43
8 - Turnaround - 2:49
9 - Obsession - 3:09
10 - Strawberry Blonde - 4:38
11 - Always Tomorrow - 2:59
12 - Lostboy - 3:08

EAC-Log, CUE-Sheed & NFO:

Click to open spoiler
Exact Audio Copy V0.99 prebeta 4 from 23. January 2008

EAC extraction logfile from 16. July 2008, 14:44

The Subways / All Or Nothing

Used drive : HL-DT-STDVDRAM GSA-4084N Adapter: 3 ID: 0

Read mode : Secure
Utilize accurate stream : Yes
Defeat audio cache : Yes
Make use of C2 pointers : No

Read offset correction : 667
Overread into Lead-In and Lead-Out : No
Fill up missing offset samples with silence : Yes
Delete leading and trailing silent blocks : No
Null samples used in CRC calculations : Yes
Used interface : Native Win32 interface for Win NT & 2000
Gap handling : Appended to previous track

Used output format : User Defined Encoder
Selected bitrate : 128 kBit/s
Quality : High
Add ID3 tag : No
Command line compressor : C:\Program Files\Exact Audio Copy\FLAC\FLAC.EXE
Additional command line options : -V -8 -T “artist=%a” -T “title=%t” -T “album=%g” -T “date=%y” -T “tracknumber=%n” -T “genre=%m” %s

TOC of the extracted CD

Track | Start | Length | Start sector | End sector
———————————————————
1 | 0:00.00 | 3:32.35 | 0 | 15934
2 | 3:32.35 | 2:54.25 | 15935 | 29009
3 | 6:26.60 | 2:51.37 | 29010 | 41871
4 | 9:18.22 | 2:45.60 | 41872 | 54306
5 | 12:04.07 | 2:44.35 | 54307 | 66641
6 | 14:48.42 | 3:12.08 | 66642 | 81049
7 | 18:00.50 | 3:42.60 | 81050 | 97759
8 | 21:43.35 | 2:48.50 | 97760 | 110409
9 | 24:32.10 | 3:08.67 | 110410 | 124576
10 | 27:41.02 | 4:38.33 | 124577 | 145459
11 | 32:19.35 | 2:58.40 | 145460 | 158849
12 | 35:18.00 | 3:06.05 | 158850 | 172804

Track 1

Filename C:\EARips\The Subways – 2008 – All Or Nothing\01 – Girls & Boys.wav

Pre-gap length 0:00:02.00

Peak level 98.8 %
Track quality 100.0 %
Test CRC 707A675D
Copy CRC 707A675D
Track not present in AccurateRip database
Copy OK

Track 2

Filename C:\EARips\The Subways – 2008 – All Or Nothing\02 – Kalifornia.wav

Pre-gap length 0:00:00.40

Peak level 100.0 %
Track quality 99.9 %
Test CRC 1262D732
Copy CRC 1262D732
Track not present in AccurateRip database
Copy OK

Track 3

Filename C:\EARips\The Subways – 2008 – All Or Nothing\03 – Alright.wav

Pre-gap length 0:00:00.15

Peak level 100.0 %
Track quality 100.0 %
Test CRC 945EE84B
Copy CRC 945EE84B
Track not present in AccurateRip database
Copy OK

Track 4

Filename C:\EARips\The Subways – 2008 – All Or Nothing\04 – Shake! Shake!.wav

Pre-gap length 0:00:00.12

Peak level 100.0 %
Track quality 100.0 %
Test CRC 14C096B6
Copy CRC 14C096B6
Track not present in AccurateRip database
Copy OK

Track 5

Filename C:\EARips\The Subways – 2008 – All Or Nothing\05 – Move To Newlyn.wav

Pre-gap length 0:00:00.50

Peak level 100.0 %
Track quality 100.0 %
Test CRC 8E5684B4
Copy CRC 8E5684B4
Track not present in AccurateRip database
Copy OK

Track 6

Filename C:\EARips\The Subways – 2008 – All Or Nothing\06 – All Or Nothing.wav

Peak level 100.0 %
Track quality 100.0 %
Test CRC D67FA204
Copy CRC D67FA204
Track not present in AccurateRip database
Copy OK

Track 7

Filename C:\EARips\The Subways – 2008 – All Or Nothing\07 – I Won’t Let You Down.wav

Pre-gap length 0:00:00.33

Peak level 100.0 %
Track quality 99.9 %
Test CRC 9879D839
Copy CRC 9879D839
Track not present in AccurateRip database
Copy OK

Track 8

Filename C:\EARips\The Subways – 2008 – All Or Nothing\08 – Turnaround.wav

Pre-gap length 0:00:00.65

Peak level 100.0 %
Track quality 99.9 %
Test CRC 6789471C
Copy CRC 6789471C
Track not present in AccurateRip database
Copy OK

Track 9

Filename C:\EARips\The Subways – 2008 – All Or Nothing\09 – Obsession.wav

Pre-gap length 0:00:00.63

Peak level 100.0 %
Track quality 100.0 %
Test CRC 966B1F36
Copy CRC 966B1F36
Track not present in AccurateRip database
Copy OK

Track 10

Filename C:\EARips\The Subways – 2008 – All Or Nothing\10 – Strawberry Blonde.wav

Pre-gap length 0:00:00.40

Peak level 100.0 %
Track quality 100.0 %
Test CRC 330A859D
Copy CRC 330A859D
Track not present in AccurateRip database
Copy OK

Track 11

Filename C:\EARips\The Subways – 2008 – All Or Nothing\11 – Always Tomorrow.wav

Pre-gap length 0:00:01.38

Peak level 100.0 %
Track quality 100.0 %
Test CRC 6790F1FB
Copy CRC 6790F1FB
Track not present in AccurateRip database
Copy OK

Track 12

Filename C:\EARips\The Subways – 2008 – All Or Nothing\12 – Lostboy.wav

Pre-gap length 0:00:02.15

Peak level 100.0 %
Track quality 100.0 %
Test CRC FDE2DBAC
Copy CRC FDE2DBAC
Track not present in AccurateRip database
Copy OK

None of the tracks are present in the AccurateRip database

No errors occurred

End of status report

REM GENRE Indie
REM DATE 2008
REM DISCID 8F09000C
REM COMMENT “ExactAudioCopy v0.99pb4”
PERFORMER “The Subways”
TITLE “All Or Nothing”
FILE “01 – Girls & Boys.wav” WAVE
TRACK 01 AUDIO
TITLE “Girls & Boys”
PERFORMER “The Subways”
INDEX 01 00:00:00
TRACK 02 AUDIO
TITLE “Kalifornia”
PERFORMER “The Subways”
INDEX 00 03:31:70
FILE “02 – Kalifornia.wav” WAVE
INDEX 01 00:00:00
TRACK 03 AUDIO
TITLE “Alright”
PERFORMER “The Subways”
INDEX 00 02:54:10
FILE “03 – Alright.wav” WAVE
INDEX 01 00:00:00
TRACK 04 AUDIO
TITLE “Shake! Shake!”
PERFORMER “The Subways”
INDEX 00 02:51:25
FILE “04 – Shake! Shake!.wav” WAVE
INDEX 01 00:00:00
TRACK 05 AUDIO
TITLE “Move To Newlyn”
PERFORMER “The Subways”
INDEX 00 02:45:10
FILE “05 – Move To Newlyn.wav” WAVE
INDEX 01 00:00:00
FILE “06 – All Or Nothing.wav” WAVE
TRACK 06 AUDIO
TITLE “All Or Nothing”
PERFORMER “The Subways”
INDEX 01 00:00:00
TRACK 07 AUDIO
TITLE “I Won’t Let You Down”
PERFORMER “The Subways”
INDEX 00 03:11:50
FILE “07 – I Won’t Let You Down.wav” WAVE
INDEX 01 00:00:00
TRACK 08 AUDIO
TITLE “Turnaround”
PERFORMER “The Subways”
INDEX 00 03:41:70
FILE “08 – Turnaround.wav” WAVE
INDEX 01 00:00:00
TRACK 09 AUDIO
TITLE “Obsession”
PERFORMER “The Subways”
INDEX 00 02:47:62
FILE “09 – Obsession.wav” WAVE
INDEX 01 00:00:00
TRACK 10 AUDIO
TITLE “Strawberry Blonde”
PERFORMER “The Subways”
INDEX 00 03:08:27
FILE “10 – Strawberry Blonde.wav” WAVE
INDEX 01 00:00:00
TRACK 11 AUDIO
TITLE “Always Tomorrow”
PERFORMER “The Subways”
INDEX 00 04:36:70
FILE “11 – Always Tomorrow.wav” WAVE
INDEX 01 00:00:00
TRACK 12 AUDIO
TITLE “Lostboy”
PERFORMER “The Subways”
INDEX 00 02:56:25
FILE “12 – Lostboy.wav” WAVE
INDEX 01 00:00:00


Leave a Reply

Your email address will not be published. Required fields are marked *

This site uses Akismet to reduce spam. Learn how your comment data is processed.