The Stooges – The Weirdness




Artist: The Stooges
Year: 2007
Genre: Rock
Notes: Discogs
Add. Notes:
Cover incl.: Yes
Encoder: FLAC
Bitrate: ~1000 kBit/s (44.1 kHz/16 Bit/s)
Log & Cue incl.: Yes
Size: 471,3 MB
Password: “slam” (without ” “)


All Downloads/Hosters are compatible

Download 1
Turbobit.net
Rapidgator.net
UploadByte.com
UploadEver.com
JustUpload.io
Download 2
Turbobit.net
Rapidgator.net
UploadByte.com
UploadEver.com
JustUpload.io
Download 3
Turbobit.net
Rapidgator.net
UploadByte.com
UploadEver.com
JustUpload.io

Tracklist:

1 - Trollin' - 3:07
2 - You Can't Have Friends - 2:22
3 - ATM - 3:15
4 - My Idea Of Fun - 3:17
5 - The Weirdness - 3:45
6 - Free & Freaky - 2:39
7 - Greedy Awful People - 2:07
8 - She Took My Money - 3:49
9 - The End Of Christianity - 4:19
10 - Mexican Guy - 3:29
11 - Passing Cloud - 4:04
12 - I'm Fried - 3:45
13 - O Solo Mio - 6:18

EAC-Log, CUE-Sheed & NFO:

Click to open spoiler
Exact Audio Copy V1.1 from 23. June 2015

EAC extraction logfile from 28. July 2017, 3:09

The Stooges / The Weirdness [TOCP-66664]

Used drive : HL-DT-STDVDRAM GH24NSD0 Adapter: 1 ID: 0

Read mode : Secure
Utilize accurate stream : Yes
Defeat audio cache : Yes
Make use of C2 pointers : No

Read offset correction : 6
Overread into Lead-In and Lead-Out : No
Fill up missing offset samples with silence : Yes
Delete leading and trailing silent blocks : No
Null samples used in CRC calculations : Yes
Used interface : Native Win32 interface for Win NT & 2000
Gap handling : Appended to previous track

Used output format : User Defined Encoder
Selected bitrate : 768 kBit/s
Quality : High
Add ID3 tag : No
Command line compressor : C:\Program Files (x86)\Exact Audio Copy\FLAC\FLAC.EXE
Additional command line options : -V -8 -T “Genre=%genre%” -T “Artist=%artist%” -T “Title=%title%” -T “Album=%albumtitle%” -T “Date=%year%” -T “Tracknumber=%tracknr%” -T “Comment=%comment%” %source%

TOC of the extracted CD

Track | Start | Length | Start sector | End sector
———————————————————
1 | 0:00.00 | 3:07.21 | 0 | 14045
2 | 3:07.21 | 2:22.57 | 14046 | 24752
3 | 5:30.03 | 3:15.21 | 24753 | 39398
4 | 8:45.24 | 3:17.58 | 39399 | 54231
5 | 12:03.07 | 3:45.43 | 54232 | 71149
6 | 15:48.50 | 2:39.67 | 71150 | 83141
7 | 18:28.42 | 2:07.11 | 83142 | 92677
8 | 20:35.53 | 3:49.31 | 92678 | 109883
9 | 24:25.09 | 4:19.41 | 109884 | 129349
10 | 28:44.50 | 3:29.01 | 129350 | 145025
11 | 32:13.51 | 4:04.42 | 145026 | 163367
12 | 36:18.18 | 3:45.17 | 163368 | 180259
13 | 40:03.35 | 6:18.20 | 180260 | 208629

Track 1

Filename D:\g.y.m\Stooges, The\2007. The Weirdness [TOCP-66664]\01. Trollin’.wav

Pre-gap length 0:00:02.00

Peak level 98.6 %
Extraction speed 1.0 X
Track quality 100.0 %
Test CRC F19263AE
Copy CRC F19263AE
Accurately ripped (confidence 4) [F7D8E189] (AR v2)
Copy OK

Track 2

Filename D:\g.y.m\Stooges, The\2007. The Weirdness [TOCP-66664]\02. You Can’t Have Friends.wav

Pre-gap length 0:00:00.57

Peak level 98.8 %
Extraction speed 0.8 X
Track quality 99.9 %
Test CRC 79DFF4A0
Copy CRC 79DFF4A0
Accurately ripped (confidence 4) [D9B2A313] (AR v2)
Copy OK

Track 3

Filename D:\g.y.m\Stooges, The\2007. The Weirdness [TOCP-66664]\03. ATM.wav

Peak level 99.0 %
Extraction speed 1.1 X
Track quality 100.0 %
Test CRC 8A9FB899
Copy CRC 8A9FB899
Accurately ripped (confidence 4) [BE6E005B] (AR v2)
Copy OK

Track 4

Filename D:\g.y.m\Stooges, The\2007. The Weirdness [TOCP-66664]\04. My Idea Of Fun.wav

Peak level 98.8 %
Extraction speed 1.2 X
Track quality 100.0 %
Test CRC 41133909
Copy CRC 41133909
Accurately ripped (confidence 4) [60BB6D6F] (AR v2)
Copy OK

Track 5

Filename D:\g.y.m\Stooges, The\2007. The Weirdness [TOCP-66664]\05. The Weirdness.wav

Peak level 99.0 %
Extraction speed 0.2 X
Track quality 100.0 %
Test CRC 4167BB63
Copy CRC 4167BB63
Accurately ripped (confidence 4) [59470280] (AR v2)
Copy OK

Track 6

Filename D:\g.y.m\Stooges, The\2007. The Weirdness [TOCP-66664]\06. Free & Freaky.wav

Peak level 98.7 %
Extraction speed 1.3 X
Track quality 100.0 %
Test CRC 2930A5D2
Copy CRC 2930A5D2
Accurately ripped (confidence 4) [907096FE] (AR v2)
Copy OK

Track 7

Filename D:\g.y.m\Stooges, The\2007. The Weirdness [TOCP-66664]\07. Greedy Awful People.wav

Peak level 98.7 %
Extraction speed 1.1 X
Track quality 99.9 %
Test CRC DF1C3B33
Copy CRC DF1C3B33
Accurately ripped (confidence 4) [10F801B1] (AR v2)
Copy OK

Track 8

Filename D:\g.y.m\Stooges, The\2007. The Weirdness [TOCP-66664]\08. She Took My Money.wav

Peak level 99.0 %
Extraction speed 1.3 X
Track quality 99.9 %
Test CRC 574DD668
Copy CRC 574DD668
Accurately ripped (confidence 4) [5BFAA593] (AR v2)
Copy OK

Track 9

Filename D:\g.y.m\Stooges, The\2007. The Weirdness [TOCP-66664]\09. The End Of Christianity.wav

Pre-gap length 0:00:01.21

Peak level 98.8 %
Extraction speed 1.6 X
Track quality 100.0 %
Test CRC 1FD7B324
Copy CRC 1FD7B324
Accurately ripped (confidence 4) [7F37B3A8] (AR v2)
Copy OK

Track 10

Filename D:\g.y.m\Stooges, The\2007. The Weirdness [TOCP-66664]\10. Mexican Guy.wav

Peak level 98.8 %
Extraction speed 1.6 X
Track quality 100.0 %
Test CRC D13D1128
Copy CRC D13D1128
Accurately ripped (confidence 4) [F1AFDD89] (AR v2)
Copy OK

Track 11

Filename D:\g.y.m\Stooges, The\2007. The Weirdness [TOCP-66664]\11. Passing Cloud.wav

Peak level 98.9 %
Extraction speed 0.3 X
Track quality 100.0 %
Test CRC 3FB4EDB7
Copy CRC 3FB4EDB7
Accurately ripped (confidence 4) [99773698] (AR v2)
Copy OK

Track 12

Filename D:\g.y.m\Stooges, The\2007. The Weirdness [TOCP-66664]\12. I’m Fried.wav

Peak level 98.8 %
Extraction speed 1.8 X
Track quality 100.0 %
Test CRC 02472E6C
Copy CRC 02472E6C
Accurately ripped (confidence 4) [8457F5C0] (AR v2)
Copy OK

Track 13

Filename D:\g.y.m\Stooges, The\2007. The Weirdness [TOCP-66664]\13. O Solo Mio.wav

Pre-gap length 0:00:02.59

Peak level 99.2 %
Extraction speed 2.0 X
Track quality 100.0 %
Test CRC A7F87549
Copy CRC A7F87549
Accurately ripped (confidence 4) [2082875E] (AR v2)
Copy OK

All tracks accurately ripped

No errors occurred

End of status report

==== Log checksum 5201CA4C156109B22F48C0A16035A98390B1C5A7A4094E02C91E8906B0146993 ====

REM GENRE Proto-Punk
REM DATE 2007
REM DISCID A00ADD0D
REM COMMENT “ExactAudioCopy v1.1”
PERFORMER “The Stooges”
TITLE “The Weirdness [TOCP-66664]”
FILE “01. Trollin’.wav” WAVE
TRACK 01 AUDIO
TITLE “Trollin'”
PERFORMER “The Stooges”
INDEX 01 00:00:00
TRACK 02 AUDIO
TITLE “You Can’t Have Friends”
PERFORMER “The Stooges”
INDEX 00 03:06:39
FILE “02. You Can’t Have Friends.wav” WAVE
INDEX 01 00:00:00
FILE “03. ATM.wav” WAVE
TRACK 03 AUDIO
TITLE “ATM”
PERFORMER “The Stooges”
INDEX 01 00:00:00
FILE “04. My Idea Of Fun.wav” WAVE
TRACK 04 AUDIO
TITLE “My Idea Of Fun”
PERFORMER “The Stooges”
INDEX 01 00:00:00
FILE “05. The Weirdness.wav” WAVE
TRACK 05 AUDIO
TITLE “The Weirdness”
PERFORMER “The Stooges”
INDEX 01 00:00:00
FILE “06. Free & Freaky.wav” WAVE
TRACK 06 AUDIO
TITLE “Free & Freaky”
PERFORMER “The Stooges”
INDEX 01 00:00:00
FILE “07. Greedy Awful People.wav” WAVE
TRACK 07 AUDIO
TITLE “Greedy Awful People”
PERFORMER “The Stooges”
INDEX 01 00:00:00
FILE “08. She Took My Money.wav” WAVE
TRACK 08 AUDIO
TITLE “She Took My Money”
PERFORMER “The Stooges”
INDEX 01 00:00:00
TRACK 09 AUDIO
TITLE “The End Of Christianity”
PERFORMER “The Stooges”
INDEX 00 03:48:10
FILE “09. The End Of Christianity.wav” WAVE
INDEX 01 00:00:00
FILE “10. Mexican Guy.wav” WAVE
TRACK 10 AUDIO
TITLE “Mexican Guy”
PERFORMER “The Stooges”
INDEX 01 00:00:00
FILE “11. Passing Cloud.wav” WAVE
TRACK 11 AUDIO
TITLE “Passing Cloud”
PERFORMER “The Stooges”
INDEX 01 00:00:00
FILE “12. I’m Fried.wav” WAVE
TRACK 12 AUDIO
TITLE “I’m Fried”
PERFORMER “The Stooges”
INDEX 01 00:00:00
TRACK 13 AUDIO
TITLE “O Solo Mio”
PERFORMER “The Stooges”
INDEX 00 03:42:33
FILE “13. O Solo Mio.wav” WAVE
INDEX 01 00:00:00

Leave a Reply

Your email address will not be published. Required fields are marked *

This site uses Akismet to reduce spam. Learn how your comment data is processed.