The Stooges – The Stooges (Remastered)




Artist: The Stooges
Year: 1969/2005
Genre: Punk
Notes: Discogs
Add. Notes: Remastered
Cover incl.: Yes
Encoder: FLAC
Bitrate: ~1000 kBit/s (44.1 kHz/16 Bit/s)
Log & Cue incl.: Yes
Size: 705,62 MB
Password: “slam” (without ” “)


All Downloads/Hosters are compatible

Download 1
Turbobit.net
Rapidgator.net
UploadEver.com
JustUpload.io
UsersDrive.com
Download 2
Turbobit.net
Rapidgator.net
UploadEver.com
JustUpload.io
UsersDrive.com
Download 3
Turbobit.net
Rapidgator.net
UploadEver.com
JustUpload.io
UsersDrive.com

Tracklist:

1-1 - 1969 - 4:07
1-2 - I Wanna Be Your Dog - 3:12
1-3 - We Will Fall - 10:16
1-4 - No Fun - 5:18
1-5 - Real Cool Time - 2:32
1-6 - Ann - 3:00
1-7 - Not Right - 2:51
1-8 - Little Doll - 3:23
2-1 - No Fun (Original John Cale Mix) - 4:42
2-2 - 1969 (Original John Cale Mix) - 2:44
2-3 - I Wanna Be Your Dog (Original John Cale Mix) - 3:25
2-4 - Little Doll (Original John Cale Mix) - 2:48
2-5 - 1969 (Alternate Vocal) - 4:47
2-6 - I Wanna Be Your Dog (Alternate Vocal) - 3:28
2-7 - Not Right (Alternate Vocal) - 3:11
2-8 - Real Cool Time (Alternate Mix) - 3:22
2-9 - Ann (Full Version) - 7:51
2-10 - No Fun (Full Version) - 6:49

EAC-Log, CUE-Sheed & NFO:

Click to open spoiler
Exact Audio Copy V1.1 from 23. June 2015

EAC extraction logfile from 30. July 2017, 2:29

The Stooges / The Stooges [2005, 8122-73176-2]: CD1

Used drive : HL-DT-STDVDRAM GH24NSD0 Adapter: 1 ID: 0

Read mode : Secure
Utilize accurate stream : Yes
Defeat audio cache : Yes
Make use of C2 pointers : No

Read offset correction : 6
Overread into Lead-In and Lead-Out : No
Fill up missing offset samples with silence : Yes
Delete leading and trailing silent blocks : No
Null samples used in CRC calculations : Yes
Used interface : Native Win32 interface for Win NT & 2000
Gap handling : Appended to previous track

Used output format : User Defined Encoder
Selected bitrate : 768 kBit/s
Quality : High
Add ID3 tag : No
Command line compressor : C:\Program Files (x86)\Exact Audio Copy\FLAC\FLAC.EXE
Additional command line options : -V -8 -T “Genre=%genre%” -T “Artist=%artist%” -T “Title=%title%” -T “Album=%albumtitle%” -T “Date=%year%” -T “Tracknumber=%tracknr%” -T “Comment=%comment%” %source%

TOC of the extracted CD

Track | Start | Length | Start sector | End sector
———————————————————
1 | 0:00.00 | 4:07.66 | 0 | 18590
2 | 4:07.66 | 3:12.70 | 18591 | 33060
3 | 7:20.61 | 10:16.73 | 33061 | 79333
4 | 17:37.59 | 5:18.28 | 79334 | 103211
5 | 22:56.12 | 2:32.72 | 103212 | 114683
6 | 25:29.09 | 3:00.54 | 114684 | 128237
7 | 28:29.63 | 2:51.24 | 128238 | 141086
8 | 31:21.12 | 3:23.06 | 141087 | 156317

Track 1

Filename D:\g.y.m\Stooges, The\1969. The Stooges [2005, 8122-73176-2]\CD1\01. 1969.wav

Pre-gap length 0:00:02.00

Peak level 97.2 %
Extraction speed 1.0 X
Track quality 100.0 %
Test CRC 8443E29E
Copy CRC 8443E29E
Accurately ripped (confidence 88) [723FF22A] (AR v2)
Copy OK

Track 2

Filename D:\g.y.m\Stooges, The\1969. The Stooges [2005, 8122-73176-2]\CD1\02. I Wanna Be Your Dog.wav

Peak level 99.5 %
Extraction speed 1.1 X
Track quality 100.0 %
Test CRC 5A6F80FF
Copy CRC 5A6F80FF
Accurately ripped (confidence 89) [2B45349F] (AR v2)
Copy OK

Track 3

Filename D:\g.y.m\Stooges, The\1969. The Stooges [2005, 8122-73176-2]\CD1\03. We Will Fall.wav

Peak level 99.8 %
Extraction speed 1.4 X
Track quality 100.0 %
Test CRC 3E5975E4
Copy CRC 3E5975E4
Accurately ripped (confidence 89) [7C4F6FCB] (AR v2)
Copy OK

Track 4

Filename D:\g.y.m\Stooges, The\1969. The Stooges [2005, 8122-73176-2]\CD1\04. No Fun.wav

Pre-gap length 0:00:01.08

Peak level 99.8 %
Extraction speed 1.4 X
Track quality 99.9 %
Test CRC AAA74698
Copy CRC AAA74698
Accurately ripped (confidence 89) [A2D47B15] (AR v2)
Copy OK

Track 5

Filename D:\g.y.m\Stooges, The\1969. The Stooges [2005, 8122-73176-2]\CD1\05. Real Cool Time.wav

Peak level 99.8 %
Extraction speed 1.4 X
Track quality 100.0 %
Test CRC A0F23DC7
Copy CRC A0F23DC7
Accurately ripped (confidence 89) [442A113B] (AR v2)
Copy OK

Track 6

Filename D:\g.y.m\Stooges, The\1969. The Stooges [2005, 8122-73176-2]\CD1\06. Ann.wav

Pre-gap length 0:00:01.74

Peak level 99.8 %
Extraction speed 1.5 X
Track quality 100.0 %
Test CRC AC09D33E
Copy CRC AC09D33E
Accurately ripped (confidence 89) [5E1CF4F6] (AR v2)
Copy OK

Track 7

Filename D:\g.y.m\Stooges, The\1969. The Stooges [2005, 8122-73176-2]\CD1\07. Not Right.wav

Pre-gap length 0:00:01.07

Peak level 99.8 %
Extraction speed 1.3 X
Track quality 99.9 %
Test CRC 699622FE
Copy CRC 699622FE
Accurately ripped (confidence 89) [15E7158B] (AR v2)
Copy OK

Track 8

Filename D:\g.y.m\Stooges, The\1969. The Stooges [2005, 8122-73176-2]\CD1\08. Little Doll.wav

Pre-gap length 0:00:01.49

Peak level 99.8 %
Extraction speed 1.6 X
Track quality 100.0 %
Test CRC 80E1EE1F
Copy CRC 80E1EE1F
Accurately ripped (confidence 89) [5FCF44E3] (AR v2)
Copy OK

All tracks accurately ripped

No errors occurred

End of status report

==== Log checksum BC5B8EB4C2E3C52348B3393243E0DFCDF91CD8A913FDFEEE89A484D386C8F00A ====

REM GENRE Proto-Punk
REM DATE 1969
REM DISCID 65082408
REM COMMENT “ExactAudioCopy v1.1”
PERFORMER “The Stooges”
TITLE “The Stooges [2005, 8122-73176-2]: CD1”
FILE “01. 1969.wav” WAVE
TRACK 01 AUDIO
TITLE “1969”
PERFORMER “The Stooges”
INDEX 01 00:00:00
FILE “02. I Wanna Be Your Dog.wav” WAVE
TRACK 02 AUDIO
TITLE “I Wanna Be Your Dog”
PERFORMER “The Stooges”
INDEX 01 00:00:00
FILE “03. We Will Fall.wav” WAVE
TRACK 03 AUDIO
TITLE “We Will Fall”
PERFORMER “The Stooges”
INDEX 01 00:00:00
TRACK 04 AUDIO
TITLE “No Fun”
PERFORMER “The Stooges”
INDEX 00 10:15:65
FILE “04. No Fun.wav” WAVE
INDEX 01 00:00:00
FILE “05. Real Cool Time.wav” WAVE
TRACK 05 AUDIO
TITLE “Real Cool Time”
PERFORMER “The Stooges”
INDEX 01 00:00:00
TRACK 06 AUDIO
TITLE “Ann”
PERFORMER “The Stooges”
INDEX 00 02:30:73
FILE “06. Ann.wav” WAVE
INDEX 01 00:00:00
TRACK 07 AUDIO
TITLE “Not Right”
PERFORMER “The Stooges”
INDEX 00 02:59:47
FILE “07. Not Right.wav” WAVE
INDEX 01 00:00:00
TRACK 08 AUDIO
TITLE “Little Doll”
PERFORMER “The Stooges”
INDEX 00 02:49:50
FILE “08. Little Doll.wav” WAVE
INDEX 01 00:00:00

Exact Audio Copy V1.1 from 23. June 2015

EAC extraction logfile from 30. July 2017, 4:11

The Stooges / The Stooges [2005, 8122-73176-2]: CD2

Used drive : HL-DT-STDVDRAM GH24NSD0 Adapter: 1 ID: 0

Read mode : Secure
Utilize accurate stream : Yes
Defeat audio cache : Yes
Make use of C2 pointers : No

Read offset correction : 6
Overread into Lead-In and Lead-Out : No
Fill up missing offset samples with silence : Yes
Delete leading and trailing silent blocks : No
Null samples used in CRC calculations : Yes
Used interface : Native Win32 interface for Win NT & 2000
Gap handling : Appended to previous track

Used output format : User Defined Encoder
Selected bitrate : 768 kBit/s
Quality : High
Add ID3 tag : No
Command line compressor : C:\Program Files (x86)\Exact Audio Copy\FLAC\FLAC.EXE
Additional command line options : -V -8 -T “Genre=%genre%” -T “Artist=%artist%” -T “Title=%title%” -T “Album=%albumtitle%” -T “Date=%year%” -T “Tracknumber=%tracknr%” -T “Comment=%comment%” %source%

TOC of the extracted CD

Track | Start | Length | Start sector | End sector
———————————————————
1 | 0:00.00 | 4:42.42 | 0 | 21191
2 | 4:42.42 | 2:44.62 | 21192 | 33553
3 | 7:27.29 | 3:25.72 | 33554 | 49000
4 | 10:53.26 | 2:48.66 | 49001 | 61666
5 | 13:42.17 | 4:47.30 | 61667 | 83221
6 | 18:29.47 | 3:28.13 | 83222 | 98834
7 | 21:57.60 | 3:11.57 | 98835 | 113216
8 | 25:09.42 | 3:22.00 | 113217 | 128366
9 | 28:31.42 | 7:51.57 | 128367 | 163748
10 | 36:23.24 | 6:49.19 | 163749 | 194442

Track 1

Filename D:\g.y.m\Stooges, The\1969. The Stooges [2005, 8122-73176-2]\CD2\01. No Fun (Original John Cale Mix).wav

Pre-gap length 0:00:02.00

Peak level 98.8 %
Extraction speed 1.0 X
Track quality 100.0 %
Test CRC A90E67B9
Copy CRC A90E67B9
Accurately ripped (confidence 87) [CEFF7D81] (AR v2)
Copy OK

Track 2

Filename D:\g.y.m\Stooges, The\1969. The Stooges [2005, 8122-73176-2]\CD2\02. 1969 (Original John Cale Mix).wav

Peak level 98.0 %
Extraction speed 1.0 X
Track quality 100.0 %
Test CRC 04FF8821
Copy CRC 04FF8821
Accurately ripped (confidence 87) [D3A17FF8] (AR v2)
Copy OK

Track 3

Filename D:\g.y.m\Stooges, The\1969. The Stooges [2005, 8122-73176-2]\CD2\03. I Wanna Be Your Dog (Original John Cale Mix).wav

Peak level 98.8 %
Extraction speed 1.2 X
Track quality 100.0 %
Test CRC 731AF0F5
Copy CRC 731AF0F5
Accurately ripped (confidence 87) [C421F808] (AR v2)
Copy OK

Track 4

Filename D:\g.y.m\Stooges, The\1969. The Stooges [2005, 8122-73176-2]\CD2\04. Little Doll (Original John Cale Mix).wav

Peak level 98.8 %
Extraction speed 1.2 X
Track quality 100.0 %
Test CRC 540FEAE5
Copy CRC 540FEAE5
Accurately ripped (confidence 87) [AEDDD57B] (AR v2)
Copy OK

Track 5

Filename D:\g.y.m\Stooges, The\1969. The Stooges [2005, 8122-73176-2]\CD2\05. 1969 (Alternate Vocal).wav

Peak level 98.8 %
Extraction speed 0.3 X
Track quality 100.0 %
Test CRC 412180C2
Copy CRC 412180C2
Accurately ripped (confidence 87) [DC7569CF] (AR v2)
Copy OK

Track 6

Filename D:\g.y.m\Stooges, The\1969. The Stooges [2005, 8122-73176-2]\CD2\06. I Wanna Be Your Dog (Alternate Vocal).wav

Pre-gap length 0:00:02.04

Peak level 98.8 %
Extraction speed 1.2 X
Track quality 99.9 %
Test CRC A6ED133B
Copy CRC A6ED133B
Accurately ripped (confidence 87) [028ECA2D] (AR v2)
Copy OK

Track 7

Filename D:\g.y.m\Stooges, The\1969. The Stooges [2005, 8122-73176-2]\CD2\07. Not Right (Alternate Vocal).wav

Pre-gap length 0:00:01.24

Peak level 98.8 %
Extraction speed 1.5 X
Track quality 100.0 %
Test CRC D0F92BEA
Copy CRC D0F92BEA
Accurately ripped (confidence 87) [360C231F] (AR v2)
Copy OK

Track 8

Filename D:\g.y.m\Stooges, The\1969. The Stooges [2005, 8122-73176-2]\CD2\08. Real Cool Time (Alternate Mix).wav

Pre-gap length 0:00:01.14

Peak level 98.8 %
Extraction speed 1.5 X
Track quality 100.0 %
Test CRC 87916F1A
Copy CRC 87916F1A
Accurately ripped (confidence 87) [5A86FE08] (AR v2)
Copy OK

Track 9

Filename D:\g.y.m\Stooges, The\1969. The Stooges [2005, 8122-73176-2]\CD2\09. Ann (Full Version).wav

Pre-gap length 0:00:01.72

Peak level 98.8 %
Extraction speed 1.7 X
Track quality 99.9 %
Test CRC 308E0E36
Copy CRC 308E0E36
Accurately ripped (confidence 87) [BB5CD446] (AR v2)
Copy OK

Track 10

Filename D:\g.y.m\Stooges, The\1969. The Stooges [2005, 8122-73176-2]\CD2\10. No Fun (Full Version).wav

Pre-gap length 0:00:01.34

Peak level 98.8 %
Extraction speed 1.9 X
Track quality 100.0 %
Test CRC 2FD3FFE8
Copy CRC 2FD3FFE8
Accurately ripped (confidence 87) [68A0DEA0] (AR v2)
Copy OK

All tracks accurately ripped

No errors occurred

End of status report

==== Log checksum 3B3AFF9F5553FBEF0596A79C8ADBE798D4E8B8D63A17AAD2FA1B407387E9F962 ====

REM GENRE Proto-Punk
REM DATE 1969
REM DISCID 750A200A
REM COMMENT “ExactAudioCopy v1.1”
PERFORMER “The Stooges”
TITLE “The Stooges [2005, 8122-73176-2]: CD2”
FILE “01. No Fun (Original John Cale Mix).wav” WAVE
TRACK 01 AUDIO
TITLE “No Fun (Original John Cale Mix)”
PERFORMER “The Stooges”
INDEX 01 00:00:00
FILE “02. 1969 (Original John Cale Mix).wav” WAVE
TRACK 02 AUDIO
TITLE “1969 (Original John Cale Mix)”
PERFORMER “The Stooges”
INDEX 01 00:00:00
FILE “03. I Wanna Be Your Dog (Original John Cale Mix).wav” WAVE
TRACK 03 AUDIO
TITLE “I Wanna Be Your Dog (Original John Cale Mix)”
PERFORMER “The Stooges”
INDEX 01 00:00:00
FILE “04. Little Doll (Original John Cale Mix).wav” WAVE
TRACK 04 AUDIO
TITLE “Little Doll (Original John Cale Mix)”
PERFORMER “The Stooges”
INDEX 01 00:00:00
FILE “05. 1969 (Alternate Vocal).wav” WAVE
TRACK 05 AUDIO
TITLE “1969 (Alternate Vocal)”
PERFORMER “The Stooges”
INDEX 01 00:00:00
TRACK 06 AUDIO
TITLE “I Wanna Be Your Dog (Alternate Vocal)”
PERFORMER “The Stooges”
INDEX 00 04:45:26
FILE “06. I Wanna Be Your Dog (Alternate Vocal).wav” WAVE
INDEX 01 00:00:00
TRACK 07 AUDIO
TITLE “Not Right (Alternate Vocal)”
PERFORMER “The Stooges”
INDEX 00 03:26:64
FILE “07. Not Right (Alternate Vocal).wav” WAVE
INDEX 01 00:00:00
TRACK 08 AUDIO
TITLE “Real Cool Time (Alternate Mix)”
PERFORMER “The Stooges”
INDEX 00 03:10:43
FILE “08. Real Cool Time (Alternate Mix).wav” WAVE
INDEX 01 00:00:00
TRACK 09 AUDIO
TITLE “Ann (Full Version)”
PERFORMER “The Stooges”
INDEX 00 03:20:03
FILE “09. Ann (Full Version).wav” WAVE
INDEX 01 00:00:00
TRACK 10 AUDIO
TITLE “No Fun (Full Version)”
PERFORMER “The Stooges”
INDEX 00 07:50:23
FILE “10. No Fun (Full Version).wav” WAVE
INDEX 01 00:00:00

Leave a Reply

Your email address will not be published. Required fields are marked *

This site uses Akismet to reduce spam. Learn how your comment data is processed.