The Stooges – The Stooges (Japanese Edition)




Artist: The Stooges
Year: 1969/198
Genre: Rock
Notes: Discogs
Add. Notes: Japanese Edition
Cover incl.: Yes
Encoder: FLAC
Bitrate: ~800 kBit/s (44.1 kHz/16 Bit/s)
Log & Cue incl.: Yes
Size: 274,83 MB
Password: “slam” (without ” “)


All Downloads/Hosters are compatible

Download 1
Turbobit.net
Rapidgator.net
UploadEver.com
JustUpload.io
HexUpload.net
Download 2
Turbobit.net
Rapidgator.net
UploadEver.com
JustUpload.io
HexUpload.net
Download 3
Turbobit.net
Rapidgator.net
UploadEver.com
JustUpload.io
HexUpload.net

Tracklist:

1 - 1969 - 4:05
2 - I Wanna Be Your Dog - 3:10
3 - We Will Fall - 10:15
4 - No Fun - 5:15
5 - Real Cool Time - 2:29
6 - Ann - 3:00
7 - Not Right - 2:49
8 - Little Doll - 3:21

EAC-Log, CUE-Sheed & NFO:

Click to open spoiler
Exact Audio Copy V1.1 from 23. June 2015

EAC extraction logfile from 27. July 2017, 20:51

The Stooges / The Stooges [1998, AMCY-2566]

Used drive : HL-DT-STDVDRAM GH24NSD0 Adapter: 1 ID: 0

Read mode : Secure
Utilize accurate stream : Yes
Defeat audio cache : Yes
Make use of C2 pointers : No

Read offset correction : 6
Overread into Lead-In and Lead-Out : No
Fill up missing offset samples with silence : Yes
Delete leading and trailing silent blocks : No
Null samples used in CRC calculations : Yes
Used interface : Native Win32 interface for Win NT & 2000
Gap handling : Appended to previous track

Used output format : User Defined Encoder
Selected bitrate : 768 kBit/s
Quality : High
Add ID3 tag : No
Command line compressor : C:\Program Files (x86)\Exact Audio Copy\FLAC\FLAC.EXE
Additional command line options : -V -8 -T “Genre=%genre%” -T “Artist=%artist%” -T “Title=%title%” -T “Album=%albumtitle%” -T “Date=%year%” -T “Tracknumber=%tracknr%” -T “Comment=%comment%” %source%

TOC of the extracted CD

Track | Start | Length | Start sector | End sector
———————————————————
1 | 0:00.32 | 4:07.20 | 32 | 18576
2 | 4:07.52 | 3:09.65 | 18577 | 32816
3 | 7:17.42 | 10:18.40 | 32817 | 79206
4 | 17:36.07 | 5:16.08 | 79207 | 102914
5 | 22:52.15 | 2:32.07 | 102915 | 114321
6 | 25:24.22 | 2:59.60 | 114322 | 127806
7 | 28:24.07 | 2:51.08 | 127807 | 140639
8 | 31:15.15 | 3:22.15 | 140640 | 155804

Track 1

Filename D:\g.y.m\Stooges, The\1969. The Stooges [1998, AMCY-2566]\01. 1969.wav

Pre-gap length 0:00:02.32

Peak level 86.6 %
Extraction speed 1.0 X
Track quality 100.0 %
Test CRC E61FB29E
Copy CRC E61FB29E
Accurately ripped (confidence 2) [D2CF6A23] (AR v1)
Copy OK

Track 2

Filename D:\g.y.m\Stooges, The\1969. The Stooges [1998, AMCY-2566]\02. I Wanna Be Your Dog.wav

Pre-gap length 0:00:01.65

Peak level 80.8 %
Extraction speed 0.9 X
Track quality 99.9 %
Test CRC 736CD4CA
Copy CRC 736CD4CA
Accurately ripped (confidence 2) [9D7468FD] (AR v1)
Copy OK

Track 3

Filename D:\g.y.m\Stooges, The\1969. The Stooges [1998, AMCY-2566]\03. We Will Fall.wav

Pre-gap length 0:00:01.55

Peak level 76.9 %
Extraction speed 0.5 X
Track quality 100.0 %
Test CRC 460EF99D
Copy CRC 460EF99D
Accurately ripped (confidence 2) [D8E98FFB] (AR v1)
Copy OK

Track 4

Filename D:\g.y.m\Stooges, The\1969. The Stooges [1998, AMCY-2566]\04. No Fun.wav

Pre-gap length 0:00:02.07

Peak level 83.4 %
Extraction speed 1.5 X
Track quality 100.0 %
Test CRC 6F9C82A0
Copy CRC 6F9C82A0
Accurately ripped (confidence 2) [894DD086] (AR v1)
Copy OK

Track 5

Filename D:\g.y.m\Stooges, The\1969. The Stooges [1998, AMCY-2566]\05. Real Cool Time.wav

Pre-gap length 0:00:01.73

Peak level 93.4 %
Extraction speed 1.4 X
Track quality 100.0 %
Test CRC 22C0304C
Copy CRC 22C0304C
Accurately ripped (confidence 2) [2E8296D6] (AR v1)
Copy OK

Track 6

Filename D:\g.y.m\Stooges, The\1969. The Stooges [1998, AMCY-2566]\06. Ann.wav

Pre-gap length 0:00:01.67

Peak level 85.4 %
Extraction speed 1.5 X
Track quality 100.0 %
Test CRC 34F355D5
Copy CRC 34F355D5
Accurately ripped (confidence 2) [D2E91E97] (AR v1)
Copy OK

Track 7

Filename D:\g.y.m\Stooges, The\1969. The Stooges [1998, AMCY-2566]\07. Not Right.wav

Pre-gap length 0:00:01.67

Peak level 81.8 %
Extraction speed 1.6 X
Track quality 100.0 %
Test CRC F1C4672A
Copy CRC F1C4672A
Accurately ripped (confidence 2) [CE2B315F] (AR v1)
Copy OK

Track 8

Filename D:\g.y.m\Stooges, The\1969. The Stooges [1998, AMCY-2566]\08. Little Doll.wav

Pre-gap length 0:00:01.58

Peak level 87.4 %
Extraction speed 1.4 X
Track quality 99.9 %
Test CRC 462AF891
Copy CRC 462AF891
Accurately ripped (confidence 2) [694C006C] (AR v1)
Copy OK

All tracks accurately ripped

No errors occurred

End of status report

==== Log checksum 4665762E40AB150C9ACA39CF9D3F287D953BDB3218793E361C611C870B547D2A ====

REM GENRE Proto-Punk
REM DATE 1969
REM DISCID 71081D08
REM COMMENT “ExactAudioCopy v1.1”
PERFORMER “The Stooges”
TITLE “The Stooges [1998, AMCY-2566]”
FILE “01. 1969.wav” WAVE
TRACK 01 AUDIO
TITLE “1969”
PERFORMER “The Stooges”
PREGAP 00:00:32
INDEX 01 00:00:00
TRACK 02 AUDIO
TITLE “I Wanna Be Your Dog”
PERFORMER “The Stooges”
INDEX 00 04:05:30
FILE “02. I Wanna Be Your Dog.wav” WAVE
INDEX 01 00:00:00
TRACK 03 AUDIO
TITLE “We Will Fall”
PERFORMER “The Stooges”
INDEX 00 03:08:10
FILE “03. We Will Fall.wav” WAVE
INDEX 01 00:00:00
TRACK 04 AUDIO
TITLE “No Fun”
PERFORMER “The Stooges”
INDEX 00 10:16:33
FILE “04. No Fun.wav” WAVE
INDEX 01 00:00:00
TRACK 05 AUDIO
TITLE “Real Cool Time”
PERFORMER “The Stooges”
INDEX 00 05:14:10
FILE “05. Real Cool Time.wav” WAVE
INDEX 01 00:00:00
TRACK 06 AUDIO
TITLE “Ann”
PERFORMER “The Stooges”
INDEX 00 02:30:15
FILE “06. Ann.wav” WAVE
INDEX 01 00:00:00
TRACK 07 AUDIO
TITLE “Not Right”
PERFORMER “The Stooges”
INDEX 00 02:57:68
FILE “07. Not Right.wav” WAVE
INDEX 01 00:00:00
TRACK 08 AUDIO
TITLE “Little Doll”
PERFORMER “The Stooges”
INDEX 00 02:49:25
FILE “08. Little Doll.wav” WAVE
INDEX 01 00:00:00

Leave a Reply

Your email address will not be published. Required fields are marked *

This site uses Akismet to reduce spam. Learn how your comment data is processed.