The Stooges – Fun House




Artist: The Stooges
Year: 1970/1998
Genre: Punk
Notes: Discogs
Add. Notes:
Cover incl.: Yes
Encoder: FLAC
Bitrate: ~800 kBit/s (44.1 kHz/16 Bit/s)
Log & Cue incl.: Yes
Size: 285,39 MB
Password: “slam” (without ” “)


All Downloads/Hosters are compatible

Download 1
Turbobit.net
Rapidgator.net
UploadEver.com
JustUpload.io
UsersDrive.com
Download 2
Turbobit.net
Rapidgator.net
UploadEver.com
JustUpload.io
UsersDrive.com
Download 3
Turbobit.net
Rapidgator.net
UploadEver.com
JustUpload.io
UsersDrive.com

Tracklist:

1 - Down On The Street - 3:42
2 - Loose - 3:33
3 - T.V. Eye - 4:17
4 - Dirt - 7:00
5 - 1970 - 5:14
6 - Fun House - 7:45
7 - L.A. Blues - 4:55

EAC-Log, CUE-Sheed & NFO:

Click to open spoiler
Exact Audio Copy V1.1 from 23. June 2015

EAC extraction logfile from 27. July 2017, 22:18

The Stooges / Fun House [1998, AMCY-2567]

Used drive : HL-DT-STDVDRAM GH24NSD0 Adapter: 1 ID: 0

Read mode : Secure
Utilize accurate stream : Yes
Defeat audio cache : Yes
Make use of C2 pointers : No

Read offset correction : 6
Overread into Lead-In and Lead-Out : No
Fill up missing offset samples with silence : Yes
Delete leading and trailing silent blocks : No
Null samples used in CRC calculations : Yes
Used interface : Native Win32 interface for Win NT & 2000
Gap handling : Appended to previous track

Used output format : User Defined Encoder
Selected bitrate : 768 kBit/s
Quality : High
Add ID3 tag : No
Command line compressor : C:\Program Files (x86)\Exact Audio Copy\FLAC\FLAC.EXE
Additional command line options : -V -8 -T “Genre=%genre%” -T “Artist=%artist%” -T “Title=%title%” -T “Album=%albumtitle%” -T “Date=%year%” -T “Tracknumber=%tracknr%” -T “Comment=%comment%” %source%

TOC of the extracted CD

Track | Start | Length | Start sector | End sector
———————————————————
1 | 0:00.32 | 3:43.25 | 32 | 16781
2 | 3:43.57 | 3:33.38 | 16782 | 32794
3 | 7:17.20 | 4:17.17 | 32795 | 52086
4 | 11:34.37 | 7:00.10 | 52087 | 83596
5 | 18:34.47 | 5:14.20 | 83597 | 107166
6 | 23:48.67 | 7:45.45 | 107167 | 142086
7 | 31:34.37 | 4:55.13 | 142087 | 164224

Track 1

Filename D:\g.y.m\Stooges, The\1970. Fun House [1998, AMCY-2567]\01. Down On The Street.wav

Pre-gap length 0:00:02.32

Peak level 100.0 %
Extraction speed 1.0 X
Track quality 100.0 %
Test CRC D2FEAD09
Copy CRC D2FEAD09
Accurately ripped (confidence 3) [79B16F55] (AR v2)
Copy OK

Track 2

Filename D:\g.y.m\Stooges, The\1970. Fun House [1998, AMCY-2567]\02. Loose.wav

Pre-gap length 0:00:00.37

Peak level 97.8 %
Extraction speed 1.1 X
Track quality 100.0 %
Test CRC 76EC2494
Copy CRC 76EC2494
Accurately ripped (confidence 3) [8C76E15F] (AR v2)
Copy OK

Track 3

Filename D:\g.y.m\Stooges, The\1970. Fun House [1998, AMCY-2567]\03. T.V. Eye.wav

Peak level 91.4 %
Extraction speed 1.2 X
Track quality 100.0 %
Test CRC CEC5097E
Copy CRC CEC5097E
Accurately ripped (confidence 3) [602C539C] (AR v2)
Copy OK

Track 4

Filename D:\g.y.m\Stooges, The\1970. Fun House [1998, AMCY-2567]\04. Dirt.wav

Peak level 95.9 %
Extraction speed 0.4 X
Track quality 100.0 %
Test CRC 3C46D4A1
Copy CRC 3C46D4A1
Accurately ripped (confidence 3) [3A5EDDB8] (AR v2)
Copy OK

Track 5

Filename D:\g.y.m\Stooges, The\1970. Fun House [1998, AMCY-2567]\05. 1970.wav

Peak level 90.6 %
Extraction speed 1.5 X
Track quality 100.0 %
Test CRC 689FBFAA
Copy CRC 689FBFAA
Accurately ripped (confidence 3) [3E03C633] (AR v2)
Copy OK

Track 6

Filename D:\g.y.m\Stooges, The\1970. Fun House [1998, AMCY-2567]\06. Fun House.wav

Peak level 100.0 %
Extraction speed 1.7 X
Track quality 100.0 %
Test CRC D3E993C3
Copy CRC D3E993C3
Accurately ripped (confidence 3) [DDFB8082] (AR v2)
Copy OK

Track 7

Filename D:\g.y.m\Stooges, The\1970. Fun House [1998, AMCY-2567]\07. L.A. Blues.wav

Pre-gap length 0:00:00.22

Peak level 87.1 %
Extraction speed 1.6 X
Track quality 99.9 %
Test CRC A49B52EA
Copy CRC A49B52EA
Accurately ripped (confidence 3) [E624C230] (AR v2)
Copy OK

All tracks accurately ripped

No errors occurred

End of status report

==== Log checksum D5DD8024FCC7E6E4B7AF22BFA03C22BB7351424EF8EEDBB2DF37F8C1E83B38B7 ====

REM GENRE Proto-Punk
REM DATE 1970
REM DISCID 59088D07
REM COMMENT “ExactAudioCopy v1.1”
PERFORMER “The Stooges”
TITLE “Fun House [1998, AMCY-2567]”
FILE “01. Down On The Street.wav” WAVE
TRACK 01 AUDIO
TITLE “Down On The Street”
PERFORMER “The Stooges”
PREGAP 00:00:32
INDEX 01 00:00:00
TRACK 02 AUDIO
TITLE “Loose”
PERFORMER “The Stooges”
INDEX 00 03:42:63
FILE “02. Loose.wav” WAVE
INDEX 01 00:00:00
FILE “03. T.V. Eye.wav” WAVE
TRACK 03 AUDIO
TITLE “T.V. Eye”
PERFORMER “The Stooges”
INDEX 01 00:00:00
FILE “04. Dirt.wav” WAVE
TRACK 04 AUDIO
TITLE “Dirt”
PERFORMER “The Stooges”
INDEX 01 00:00:00
FILE “05. 1970.wav” WAVE
TRACK 05 AUDIO
TITLE “1970”
PERFORMER “The Stooges”
INDEX 01 00:00:00
FILE “06. Fun House.wav” WAVE
TRACK 06 AUDIO
TITLE “Fun House”
PERFORMER “The Stooges”
INDEX 01 00:00:00
TRACK 07 AUDIO
TITLE “L.A. Blues”
PERFORMER “The Stooges”
INDEX 00 07:45:23
FILE “07. L.A. Blues.wav” WAVE
INDEX 01 00:00:00

Leave a Reply

Your email address will not be published. Required fields are marked *

This site uses Akismet to reduce spam. Learn how your comment data is processed.