The Stooges – Fun House (Remastered)




Artist: The Stooges
Year: 1970/2005
Genre: Punk
Notes: Discogs
Add. Notes: Remastered
Encoder: FLAC
Bitrate: ~1000 kBit/s (44.1 kHz/16 Bit/s)
Bin/Cue incl.: Yes
Size: 921,87 MB
Password: “slam” (without ” “)


http://www.share-online.biz/dl/5E4IKRRP4CN
http://www.share-online.biz/dl/DXVIKRRPDF
https://rapidgator.net/file/007c43ffe886fb45a779b3c20e38d9c9
https://rapidgator.net/file/55287600d241dcb4c131db02b65eaffa
https://uploadbyte.com/5kwn711ucas8
https://uploadbyte.com/g8zf7nhn4qps
https://uploadever.com/9nknzpt8a8ed
https://uploadever.com/sx00oj4vrp09

Tracklist:

1-1 - Down On The Street - 3:43
1-2 - Loose - 3:34
1-3 - T.V. Eye - 4:17
1-4 - Dirt - 7:03
1-5 - 1970 - 5:15
1-6 - Fun House - 7:47
1-7 - L.A. Blues - 4:57
2-1 - T.V. Eye (Takes 7 & 8) - 6:01
2-2 - Loose (Demo) - 1:16
2-3 - Loose (Take 2) - 3:42
2-4 - Loose (Take 22) - 3:42
2-5 - Lost In The Future (Take 1) - 5:50
2-6 - Down On The Street (Take 1) - 2:22
2-7 - Down On The Street (Take 8) - 4:10
2-8 - Dirt (Take 4) - 7:09
2-9 - Slide (Slidin' The Blues) (Take 1) - 4:38
2-10 - 1970 (Take 3) - 7:29
2-11 - Fun House (Take 2) - 9:30
2-12 - Fun House (Take 3) - 11:29
Bonus Single Mixes
2-13 - Down On The Street - 2:43
2-14 - 1970 - 3:21

EAC-Log, CUE-Sheed & NFO:

Click to open spoiler
Exact Audio Copy V1.1 from 23. June 2015

EAC extraction logfile from 30. July 2017, 19:57

The Stooges / Fun House [2005, 8122-73175-2]: CD1

Used drive : HL-DT-STDVDRAM GH24NSD0 Adapter: 1 ID: 0

Read mode : Secure
Utilize accurate stream : Yes
Defeat audio cache : Yes
Make use of C2 pointers : No

Read offset correction : 6
Overread into Lead-In and Lead-Out : No
Fill up missing offset samples with silence : Yes
Delete leading and trailing silent blocks : No
Null samples used in CRC calculations : Yes
Used interface : Native Win32 interface for Win NT & 2000
Gap handling : Appended to previous track

Used output format : User Defined Encoder
Selected bitrate : 768 kBit/s
Quality : High
Add ID3 tag : No
Command line compressor : C:\Program Files (x86)\Exact Audio Copy\FLAC\FLAC.EXE
Additional command line options : -V -8 -T “Genre=%genre%” -T “Artist=%artist%” -T “Title=%title%” -T “Album=%albumtitle%” -T “Date=%year%” -T “Tracknumber=%tracknr%” -T “Comment=%comment%” %source%

TOC of the extracted CD

Track | Start | Length | Start sector | End sector
———————————————————
1 | 0:00.00 | 3:43.57 | 0 | 16781
2 | 3:43.57 | 3:34.14 | 16782 | 32845
3 | 7:17.71 | 4:17.55 | 32846 | 52175
4 | 11:35.51 | 7:03.69 | 52176 | 83969
5 | 18:39.45 | 5:15.65 | 83970 | 107659
6 | 23:55.35 | 7:47.16 | 107660 | 142700
7 | 31:42.51 | 4:57.26 | 142701 | 165001

Track 1

Filename D:\g.y.m\Stooges, The\1970. Fun House [2005, 8122-73175-2]\CD1\01. Down On The Street.wav

Pre-gap length 0:00:02.00

Peak level 98.8 %
Extraction speed 0.1 X
Track quality 98.9 %
Test CRC A4437A0B
Copy CRC A4437A0B
Accurately ripped (confidence 88) [39633F2B] (AR v2)
Copy OK

Track 2

Filename D:\g.y.m\Stooges, The\1970. Fun House [2005, 8122-73175-2]\CD1\02. Loose.wav

Peak level 98.8 %
Extraction speed 1.1 X
Track quality 100.0 %
Test CRC D871E1A6
Copy CRC D871E1A6
Accurately ripped (confidence 88) [593352C1] (AR v2)
Copy OK

Track 3

Filename D:\g.y.m\Stooges, The\1970. Fun House [2005, 8122-73175-2]\CD1\03. T.V. Eye.wav

Peak level 98.8 %
Extraction speed 1.2 X
Track quality 100.0 %
Test CRC F2FDED40
Copy CRC F2FDED40
Accurately ripped (confidence 87) [64F24043] (AR v2)
Copy OK

Track 4

Filename D:\g.y.m\Stooges, The\1970. Fun House [2005, 8122-73175-2]\CD1\04. Dirt.wav

Peak level 98.8 %
Extraction speed 1.4 X
Track quality 100.0 %
Test CRC D798CCA5
Copy CRC D798CCA5
Accurately ripped (confidence 88) [CA12245D] (AR v2)
Copy OK

Track 5

Filename D:\g.y.m\Stooges, The\1970. Fun House [2005, 8122-73175-2]\CD1\05. 1970.wav

Peak level 98.8 %
Extraction speed 0.3 X
Track quality 100.0 %
Test CRC B60FB436
Copy CRC B60FB436
Accurately ripped (confidence 88) [8AD6388E] (AR v2)
Copy OK

Track 6

Filename D:\g.y.m\Stooges, The\1970. Fun House [2005, 8122-73175-2]\CD1\06. Fun House.wav

Peak level 98.8 %
Extraction speed 1.7 X
Track quality 100.0 %
Test CRC C6BD6540
Copy CRC C6BD6540
Accurately ripped (confidence 87) [A6B8A4B2] (AR v2)
Copy OK

Track 7

Filename D:\g.y.m\Stooges, The\1970. Fun House [2005, 8122-73175-2]\CD1\07. L.A. Blues.wav

Peak level 98.8 %
Extraction speed 1.8 X
Track quality 100.0 %
Test CRC 77635507
Copy CRC 77635507
Accurately ripped (confidence 88) [ED43E696] (AR v2)
Copy OK

All tracks accurately ripped

No errors occurred

End of status report

==== Log checksum 15EDED44A7625B324F8B92C2E9E5CC25E32845C63FF6C24889B4F9A978728BEF ====

Exact Audio Copy V1.1 from 23. June 2015

EAC extraction logfile from 30. July 2017, 20:35

The Stooges / Fun House [2005, 8122-73175-2]: CD2

Used drive : HL-DT-STDVDRAM GH24NSD0 Adapter: 1 ID: 0

Read mode : Secure
Utilize accurate stream : Yes
Defeat audio cache : Yes
Make use of C2 pointers : No

Read offset correction : 6
Overread into Lead-In and Lead-Out : No
Fill up missing offset samples with silence : Yes
Delete leading and trailing silent blocks : No
Null samples used in CRC calculations : Yes
Used interface : Native Win32 interface for Win NT & 2000
Gap handling : Appended to previous track

Used output format : User Defined Encoder
Selected bitrate : 768 kBit/s
Quality : High
Add ID3 tag : No
Command line compressor : C:\Program Files (x86)\Exact Audio Copy\FLAC\FLAC.EXE
Additional command line options : -V -8 -T “Genre=%genre%” -T “Artist=%artist%” -T “Title=%title%” -T “Album=%albumtitle%” -T “Date=%year%” -T “Tracknumber=%tracknr%” -T “Comment=%comment%” %source%

TOC of the extracted CD

Track | Start | Length | Start sector | End sector
———————————————————
1 | 0:00.00 | 6:01.06 | 0 | 27080
2 | 6:01.06 | 1:16.45 | 27081 | 32825
3 | 7:17.51 | 3:42.48 | 32826 | 49523
4 | 11:00.24 | 3:42.25 | 49524 | 66198
5 | 14:42.49 | 5:50.05 | 66199 | 92453
6 | 20:32.54 | 2:22.04 | 92454 | 103107
7 | 22:54.58 | 4:10.56 | 103108 | 121913
8 | 27:05.39 | 7:09.50 | 121914 | 154138
9 | 34:15.14 | 4:38.11 | 154139 | 174999
10 | 38:53.25 | 7:29.66 | 175000 | 208740
11 | 46:23.16 | 9:30.48 | 208741 | 251538
12 | 55:53.64 | 11:29.23 | 251539 | 303236
13 | 67:23.12 | 2:43.66 | 303237 | 315527
14 | 70:07.03 | 3:21.17 | 315528 | 330619

Track 1

Filename D:\g.y.m\Stooges, The\1970. Fun House [2005, 8122-73175-2]\CD2\01. T.V. Eye (Takes 7 & 8).wav

Pre-gap length 0:00:02.00

Peak level 98.8 %
Extraction speed 5.2 X
Track quality 100.0 %
Test CRC 970B2B49
Copy CRC 970B2B49
Accurately ripped (confidence 80) [F466D460] (AR v2)
Copy OK

Track 2

Filename D:\g.y.m\Stooges, The\1970. Fun House [2005, 8122-73175-2]\CD2\02. Loose (Demo).wav

Peak level 94.7 %
Extraction speed 4.1 X
Track quality 100.0 %
Test CRC 0C16BD27
Copy CRC 0C16BD27
Accurately ripped (confidence 81) [CCBAF63B] (AR v2)
Copy OK

Track 3

Filename D:\g.y.m\Stooges, The\1970. Fun House [2005, 8122-73175-2]\CD2\03. Loose (Take 2).wav

Pre-gap length 0:00:06.12

Peak level 98.8 %
Extraction speed 5.6 X
Track quality 100.0 %
Test CRC 821B756E
Copy CRC 821B756E
Accurately ripped (confidence 81) [9227A966] (AR v2)
Copy OK

Track 4

Filename D:\g.y.m\Stooges, The\1970. Fun House [2005, 8122-73175-2]\CD2\04. Loose (Take 22).wav

Peak level 98.8 %
Extraction speed 5.9 X
Track quality 100.0 %
Test CRC C061549D
Copy CRC C061549D
Accurately ripped (confidence 81) [507D36DF] (AR v2)
Copy OK

Track 5

Filename D:\g.y.m\Stooges, The\1970. Fun House [2005, 8122-73175-2]\CD2\05. Lost In The Future (Take 1).wav

Peak level 98.8 %
Extraction speed 6.7 X
Track quality 100.0 %
Test CRC 8A31B704
Copy CRC 8A31B704
Accurately ripped (confidence 81) [1FCC5B93] (AR v2)
Copy OK

Track 6

Filename D:\g.y.m\Stooges, The\1970. Fun House [2005, 8122-73175-2]\CD2\06. Down On The Street (Take 1).wav

Pre-gap length 0:00:01.04

Peak level 96.7 %
Extraction speed 4.7 X
Track quality 99.9 %
Test CRC 75092301
Copy CRC 75092301
Accurately ripped (confidence 81) [FC242DBA] (AR v2)
Copy OK

Track 7

Filename D:\g.y.m\Stooges, The\1970. Fun House [2005, 8122-73175-2]\CD2\07. Down On The Street (Take 8).wav

Pre-gap length 0:00:18.14

Peak level 93.8 %
Extraction speed 7.0 X
Track quality 100.0 %
Test CRC 602F5AE7
Copy CRC 602F5AE7
Accurately ripped (confidence 81) [CAF01D17] (AR v2)
Copy OK

Track 8

Filename D:\g.y.m\Stooges, The\1970. Fun House [2005, 8122-73175-2]\CD2\08. Dirt (Take 4).wav

Pre-gap length 0:00:02.38

Peak level 94.5 %
Extraction speed 7.9 X
Track quality 100.0 %
Test CRC 2FDD9BD3
Copy CRC 2FDD9BD3
Accurately ripped (confidence 81) [2917A088] (AR v2)
Copy OK

Track 9

Filename D:\g.y.m\Stooges, The\1970. Fun House [2005, 8122-73175-2]\CD2\09. Slide (Slidin’ The Blues) (Take 1).wav

Pre-gap length 0:00:01.35

Peak level 98.7 %
Extraction speed 8.0 X
Track quality 100.0 %
Test CRC F8D3E9A3
Copy CRC F8D3E9A3
Accurately ripped (confidence 81) [8861ED0C] (AR v2)
Copy OK

Track 10

Filename D:\g.y.m\Stooges, The\1970. Fun House [2005, 8122-73175-2]\CD2\10. 1970 (Take 3).wav

Pre-gap length 0:00:01.64

Peak level 98.8 %
Extraction speed 7.9 X
Track quality 99.9 %
Test CRC 296E1845
Copy CRC 296E1845
Accurately ripped (confidence 81) [D242B3B3] (AR v2)
Copy OK

Track 11

Filename D:\g.y.m\Stooges, The\1970. Fun House [2005, 8122-73175-2]\CD2\11. Fun House (Take 2).wav

Pre-gap length 0:00:01.68

Peak level 95.3 %
Extraction speed 9.5 X
Track quality 100.0 %
Test CRC 1C42FCAD
Copy CRC 1C42FCAD
Accurately ripped (confidence 80) [6FD9AA6E] (AR v2)
Copy OK

Track 12

Filename D:\g.y.m\Stooges, The\1970. Fun House [2005, 8122-73175-2]\CD2\12. Fun House (Take 3).wav

Pre-gap length 0:00:15.64

Peak level 98.1 %
Extraction speed 10.2 X
Track quality 100.0 %
Test CRC CB3FB10D
Copy CRC CB3FB10D
Accurately ripped (confidence 80) [D17C09AE] (AR v2)
Copy OK

Track 13

Filename D:\g.y.m\Stooges, The\1970. Fun House [2005, 8122-73175-2]\CD2\13. Down On The Street (Single Mix).wav

Pre-gap length 0:00:07.52

Peak level 98.8 %
Extraction speed 9.1 X
Track quality 100.0 %
Test CRC 9EBB2EA3
Copy CRC 9EBB2EA3
Accurately ripped (confidence 80) [14DAFB0B] (AR v2)
Copy OK

Track 14

Filename D:\g.y.m\Stooges, The\1970. Fun House [2005, 8122-73175-2]\CD2\14. 1970 (Single Mix).wav

Peak level 98.8 %
Extraction speed 9.4 X
Track quality 100.0 %
Test CRC 942C9456
Copy CRC 942C9456
Accurately ripped (confidence 80) [7E92CD01] (AR v2)
Copy OK

All tracks accurately ripped

No errors occurred

End of status report

==== Log checksum C151521D1AE112E01D0FA07081CA274502BEEA732BF33468B50038C98CDCD8E1 ====

REM GENRE Proto-Punk
REM DATE 1970
REM DISCID 53089807
REM COMMENT “ExactAudioCopy v1.1”
PERFORMER “The Stooges”
TITLE “Fun House [2005, 8122-73175-2]: CD1”
FILE “01. Down On The Street.wav” WAVE
TRACK 01 AUDIO
TITLE “Down On The Street”
PERFORMER “The Stooges”
INDEX 01 00:00:00
FILE “02. Loose.wav” WAVE
TRACK 02 AUDIO
TITLE “Loose”
PERFORMER “The Stooges”
INDEX 01 00:00:00
FILE “03. T.V. Eye.wav” WAVE
TRACK 03 AUDIO
TITLE “T.V. Eye”
PERFORMER “The Stooges”
INDEX 01 00:00:00
FILE “04. Dirt.wav” WAVE
TRACK 04 AUDIO
TITLE “Dirt”
PERFORMER “The Stooges”
INDEX 01 00:00:00
FILE “05. 1970.wav” WAVE
TRACK 05 AUDIO
TITLE “1970”
PERFORMER “The Stooges”
INDEX 01 00:00:00
FILE “06. Fun House.wav” WAVE
TRACK 06 AUDIO
TITLE “Fun House”
PERFORMER “The Stooges”
INDEX 01 00:00:00
FILE “07. L.A. Blues.wav” WAVE
TRACK 07 AUDIO
TITLE “L.A. Blues”
PERFORMER “The Stooges”
INDEX 01 00:00:00

REM GENRE Proto-Punk
REM DATE 1970
REM DISCID C811380E
REM COMMENT “ExactAudioCopy v1.1”
PERFORMER “The Stooges”
TITLE “Fun House [2005, 8122-73175-2]: CD2”
FILE “01. T.V. Eye (Takes 7 & 8).wav” WAVE
TRACK 01 AUDIO
TITLE “T.V. Eye (Takes 7 & 8)”
PERFORMER “The Stooges”
INDEX 01 00:00:00
FILE “02. Loose (Demo).wav” WAVE
TRACK 02 AUDIO
TITLE “Loose (Demo)”
PERFORMER “The Stooges”
INDEX 01 00:00:00
TRACK 03 AUDIO
TITLE “Loose (Take 2)”
PERFORMER “The Stooges”
INDEX 00 01:10:33
FILE “03. Loose (Take 2).wav” WAVE
INDEX 01 00:00:00
FILE “04. Loose (Take 22).wav” WAVE
TRACK 04 AUDIO
TITLE “Loose (Take 22)”
PERFORMER “The Stooges”
INDEX 01 00:00:00
FILE “05. Lost In The Future (Take 1).wav” WAVE
TRACK 05 AUDIO
TITLE “Lost In The Future (Take 1)”
PERFORMER “The Stooges”
INDEX 01 00:00:00
TRACK 06 AUDIO
TITLE “Down On The Street (Take 1)”
PERFORMER “The Stooges”
INDEX 00 05:49:01
FILE “06. Down On The Street (Take 1).wav” WAVE
INDEX 01 00:00:00
TRACK 07 AUDIO
TITLE “Down On The Street (Take 8)”
PERFORMER “The Stooges”
INDEX 00 02:03:65
FILE “07. Down On The Street (Take 8).wav” WAVE
INDEX 01 00:00:00
TRACK 08 AUDIO
TITLE “Dirt (Take 4)”
PERFORMER “The Stooges”
INDEX 00 04:08:18
FILE “08. Dirt (Take 4).wav” WAVE
INDEX 01 00:00:00
TRACK 09 AUDIO
TITLE “Slide (Slidin’ The Blues) (Take 1)”
PERFORMER “The Stooges”
INDEX 00 07:08:15
FILE “09. Slide (Slidin’ The Blues) (Take 1).wav” WAVE
INDEX 01 00:00:00
TRACK 10 AUDIO
TITLE “1970 (Take 3)”
PERFORMER “The Stooges”
INDEX 00 04:36:22
FILE “10. 1970 (Take 3).wav” WAVE
INDEX 01 00:00:00
TRACK 11 AUDIO
TITLE “Fun House (Take 2)”
PERFORMER “The Stooges”
INDEX 00 07:27:73
FILE “11. Fun House (Take 2).wav” WAVE
INDEX 01 00:00:00
TRACK 12 AUDIO
TITLE “Fun House (Take 3)”
PERFORMER “The Stooges”
INDEX 00 09:14:59
FILE “12. Fun House (Take 3).wav” WAVE
INDEX 01 00:00:00
TRACK 13 AUDIO
TITLE “Down On The Street (Single Mix)”
PERFORMER “The Stooges”
INDEX 00 11:21:46
FILE “13. Down On The Street (Single Mix).wav” WAVE
INDEX 01 00:00:00
FILE “14. 1970 (Single Mix).wav” WAVE
TRACK 14 AUDIO
TITLE “1970 (Single Mix)”
PERFORMER “The Stooges”
INDEX 01 00:00:00

Leave a Reply

Your email address will not be published. Required fields are marked *

This site uses Akismet to reduce spam. Learn how your comment data is processed.