The Specials – The Specials (Remastered)




Artist: The Specials
Year: 1979/2002
Genre: Ska
Notes: Discogs
Add. Notes: Remastered
Cover incl.: Yes
Encoder: FLAC
Bitrate: ~900 kBit/s (44.1 kHz/16 Bit/s)
Log & Cue incl.: Yes
Size: 287,78 MB
Password: “slam” (without ” “)


All Downloads/Hosters are compatible

Download 1
Turbobit.net
Rapidgator.net
KatFile.com
UploadRar.com
Download 2
Turbobit.net
Rapidgator.net
KatFile.com
UploadRar.com
Download 3
Turbobit.net
Rapidgator.net
KatFile.com
UploadRar.com

Tracklist:

1 - A Message To You Rudy - 2:53
2 - Do The Dog - 2:12
3 - It's Up To You - 3:24
4 - Nite Klub - 3:25
5 - Doesn't Make It Alright - 3:25
6 - Concrete Jungle - 3:18
7 - Too Hot - 3:10
8 - Monkey Man - 2:45
9 - (Dawning Of A) New Era - 2:26
10 - Blank Expression - 2:44
11 - Stupid Marriage - 3:50
12 - Too Much Too Young - 6:06
13 - Little Bitch - 2:33
14 - You're Wondering Now - 2:36

EAC-Log, CUE-Sheed & NFO:

Click to open spoiler
Exact Audio Copy V0.99 prebeta 3 from 28. July 2007

EAC extraction logfile from 31. January 2008, 9:15

The Specials / The Specials (2002 Remaster)

Used drive : PIONEER DVD-RW DVR-108 Adapter: 0 ID: 0

Read mode : Secure
Utilize accurate stream : Yes
Defeat audio cache : Yes
Make use of C2 pointers : No

Read offset correction : 48
Overread into Lead-In and Lead-Out : No
Fill up missing offset samples with silence : Yes
Delete leading and trailing silent blocks : No
Null samples used in CRC calculations : Yes
Used interface : Native Win32 interface for Win NT & 2000
Gap handling : Appended to previous track

Used output format : Internal WAV Routines
Sample format : 44.100 Hz; 16 Bit; Stereo

TOC of the extracted CD

Track | Start | Length | Start sector | End sector
———————————————————
1 | 0:00.00 | 2:53.12 | 0 | 12986
2 | 2:53.12 | 2:11.48 | 12987 | 22859
3 | 5:04.60 | 3:23.55 | 22860 | 38139
4 | 8:28.40 | 3:24.67 | 38140 | 53506
5 | 11:53.32 | 3:25.23 | 53507 | 68904
6 | 15:18.55 | 3:18.02 | 68905 | 83756
7 | 18:36.57 | 3:09.70 | 83757 | 98001
8 | 21:46.52 | 2:44.58 | 98002 | 110359
9 | 24:31.35 | 2:26.32 | 110360 | 121341
10 | 26:57.67 | 2:44.35 | 121342 | 133676
11 | 29:42.27 | 3:50.10 | 133677 | 150936
12 | 33:32.37 | 6:05.55 | 150937 | 178366
13 | 39:38.17 | 2:32.63 | 178367 | 189829
14 | 42:11.05 | 2:36.20 | 189830 | 201549
15 | 47:19.25 | 13:04.22 | 212950 | 271771

Track 1

Filename C:\Lossless\01 – A Message To You Rudy.wav

Pre-gap length 0:00:02.00

Peak level 96.2 %
Track quality 100.0 %
Test CRC 92537F70
Copy CRC 92537F70
Accurately ripped (confidence 12) [B5781CBE]
Copy OK

Track 2

Filename C:\Lossless\02 – Do The Dog.wav

Peak level 96.5 %
Track quality 100.0 %
Test CRC 71A23977
Copy CRC 71A23977
Accurately ripped (confidence 12) [32EF5A80]
Copy OK

Track 3

Filename C:\Lossless\03 – It’s Up To You.wav

Pre-gap length 0:00:02.33

Peak level 97.8 %
Track quality 100.0 %
Test CRC 2E0855FE
Copy CRC 2E0855FE
Accurately ripped (confidence 12) [57437F13]
Copy OK

Track 4

Filename C:\Lossless\04 – Nite Klub.wav

Peak level 96.9 %
Track quality 99.9 %
Test CRC BFD88A6A
Copy CRC BFD88A6A
Accurately ripped (confidence 12) [F362B524]
Copy OK

Track 5

Filename C:\Lossless\05 – Doesn’t Make It Alright.wav

Peak level 95.9 %
Track quality 100.0 %
Test CRC 0C2921FA
Copy CRC 0C2921FA
Accurately ripped (confidence 12) [B9B0B593]
Copy OK

Track 6

Filename C:\Lossless\06 – Concrete Jungle.wav

Peak level 95.5 %
Track quality 100.0 %
Test CRC 897AE092
Copy CRC 897AE092
Accurately ripped (confidence 12) [2785BF55]
Copy OK

Track 7

Filename C:\Lossless\07 – Too Hot.wav

Peak level 96.1 %
Track quality 99.9 %
Test CRC C0BF8CFE
Copy CRC C0BF8CFE
Accurately ripped (confidence 12) [E9F36828]
Copy OK

Track 8

Filename C:\Lossless\08 – Monkey Man.wav

Pre-gap length 0:00:00.56

Peak level 94.9 %
Track quality 100.0 %
Test CRC 1439D6D0
Copy CRC 1439D6D0
Accurately ripped (confidence 12) [682AA5E8]
Copy OK

Track 9

Filename C:\Lossless\09 – (Dawning Of A) New Era.wav

Peak level 96.0 %
Track quality 99.9 %
Test CRC E97B118A
Copy CRC E97B118A
Accurately ripped (confidence 12) [B2BADB6B]
Copy OK

Track 10

Filename C:\Lossless\10 – Blank Expression.wav

Peak level 97.1 %
Track quality 100.0 %
Test CRC 6CF7553E
Copy CRC 6CF7553E
Accurately ripped (confidence 12) [D628FEFE]
Copy OK

Track 11

Filename C:\Lossless\11 – Stupid Marriage.wav

Pre-gap length 0:00:00.53

Peak level 97.2 %
Track quality 99.9 %
Test CRC 9107F400
Copy CRC 9107F400
Accurately ripped (confidence 12) [4EF5B437]
Copy OK

Track 12

Filename C:\Lossless\12 – Too Much Too Young.wav

Peak level 94.7 %
Track quality 100.0 %
Test CRC B9BD8BB7
Copy CRC B9BD8BB7
Accurately ripped (confidence 12) [80790D44]
Copy OK

Track 13

Filename C:\Lossless\13 – Little Bitch.wav

Peak level 96.3 %
Track quality 100.0 %
Test CRC 6020681E
Copy CRC 6020681E
Accurately ripped (confidence 12) [57DB21F4]
Copy OK

Track 14

Filename C:\Lossless\14 – You’re Wondering Now.wav

Peak level 97.1 %
Track quality 100.0 %
Test CRC 5CC2FFD9
Copy CRC 5CC2FFD9
Accurately ripped (confidence 11) [6AB33754]
Copy OK

All tracks accurately ripped

No errors occurred

End of status report

REM GENRE Ska
REM DATE 1979
REM DISCID B10E270F
REM COMMENT “ExactAudioCopy v0.99pb3”
PERFORMER “The Specials”
TITLE “The Specials (2002 Remaster)”
FILE “01 – A Message To You Rudy.wav” WAVE
TRACK 01 AUDIO
TITLE “A Message To You Rudy”
PERFORMER “The Specials”
INDEX 01 00:00:00
FILE “02 – Do The Dog.wav” WAVE
TRACK 02 AUDIO
TITLE “Do The Dog”
PERFORMER “The Specials”
INDEX 01 00:00:00
TRACK 03 AUDIO
TITLE “It’s Up To You”
PERFORMER “The Specials”
INDEX 00 02:09:23
FILE “03 – It’s Up To You.wav” WAVE
INDEX 01 00:00:00
FILE “04 – Nite Klub.wav” WAVE
TRACK 04 AUDIO
TITLE “Nite Klub”
PERFORMER “The Specials”
INDEX 01 00:00:00
FILE “05 – Doesn’t Make It Alright.wav” WAVE
TRACK 05 AUDIO
TITLE “Doesn’t Make It Alright”
PERFORMER “The Specials”
INDEX 01 00:00:00
FILE “06 – Concrete Jungle.wav” WAVE
TRACK 06 AUDIO
TITLE “Concrete Jungle”
PERFORMER “The Specials”
INDEX 01 00:00:00
FILE “07 – Too Hot.wav” WAVE
TRACK 07 AUDIO
TITLE “Too Hot”
PERFORMER “The Specials”
INDEX 01 00:00:00
TRACK 08 AUDIO
TITLE “Monkey Man”
PERFORMER “The Specials”
INDEX 00 03:09:28
FILE “08 – Monkey Man.wav” WAVE
INDEX 01 00:00:00
FILE “09 – (Dawning Of A) New Era.wav” WAVE
TRACK 09 AUDIO
TITLE “(Dawning Of A) New Era”
PERFORMER “The Specials”
INDEX 01 00:00:00
FILE “10 – Blank Expression.wav” WAVE
TRACK 10 AUDIO
TITLE “Blank Expression”
PERFORMER “The Specials”
INDEX 01 00:00:00
TRACK 11 AUDIO
TITLE “Stupid Marriage”
PERFORMER “The Specials”
INDEX 00 02:43:70
FILE “11 – Stupid Marriage.wav” WAVE
INDEX 01 00:00:00
FILE “12 – Too Much Too Young.wav” WAVE
TRACK 12 AUDIO
TITLE “Too Much Too Young”
PERFORMER “The Specials”
INDEX 01 00:00:00
FILE “13 – Little Bitch.wav” WAVE
TRACK 13 AUDIO
TITLE “Little Bitch”
PERFORMER “The Specials”
INDEX 01 00:00:00
FILE “14 – You’re Wondering Now.wav” WAVE
TRACK 14 AUDIO
TITLE “You’re Wondering Now”
PERFORMER “The Specials”
INDEX 01 00:00:00


Leave a Reply

Your email address will not be published. Required fields are marked *

This site uses Akismet to reduce spam. Learn how your comment data is processed.