The Specials – Stereo-Typical (A’s, B’s & Rarities)




Artist: The Specials
Year: 2005
Genre: Ska
Notes: Discogs
Add. Notes:
Cover incl.: Yes
Encoder: FLAC
Bitrate: ~900 kBit/s (44.1 kHz/16 Bit/s)
Log & Cue incl.: Yes
Size: 1213,55 MB
Password: “slam” (without ” “)


All Downloads/Hosters are compatible

Download 1
Turbobit.net
Rapidgator.net
UploadEver.com
KatFile.com
UsersDrive.com
Download 2
Turbobit.net
Rapidgator.net
UploadEver.com
KatFile.com
UsersDrive.com
Download 3
Turbobit.net
Rapidgator.net
UploadEver.com
KatFile.com
UsersDrive.com

Tracklist:

1-1. Gangsters 	2:48
1-2. A Message To You Rudy 	2:54
1-3. Nite Klub 	3:09
1-4. Too Much Too Young 	2:05
1-5. Guns Of Navarone 	2:19
The Special AKA 	Skinhead Symphony (Medley) 
	(6:37)
1-6A. Long Shot Kick The Bucket 	
1-6B. Liquidator 	
1-6C. Skinhead Moonstomp 	
1-7. Rat Race 	3:09
1-8. Rude Boys Outa Jail 	2:39
1-9. Stereotype 	3:52
1-10. International Jet Set 	4:14
1-11. Do Nothing 	3:39
1-12. Maggie's Farm 	3:33
1-13. Braggin' And Tryin' Not To Lie 	3:24
1-14. Rude Boys Outa Jail (Version) 	4:07
1-15. Ghost Town 	3:40
1-16. Why? 	2:55
1-17. Friday Night, Saturday Morning 	3:34
1-18. Concrete Jungle (Live) 	3:07
1-19. Racquel 	1:59
2-1. The Boiler 	5:46
2-2. Theme From The Boiler 	4:12
2-3. Jungle Music 	4:00
2-4. Rasta Call You 	3:36
2-5. Easter Island 	4:10
2-6. War Crimes (The Crime Remains The Same) 	4:00
2-7. War Crimes (The Crime Remains The Same) (Version) 
	3:44
2-8. Racist Friend 	4:02
2-9. Bright Lights 	3:46
2-10. Nelson Mandela 	4:12
2-11. Break Down The Door 	3:49
2-12. What I Like Most About You Is Your Girlfriend 
	4:05
2-13. Can't Get A Break 	4:56
2-14. Nelson Mandela '88 (Special 70th Birthday Remake) 
	4:46
2-15. Ghost Dub '91 	4:19
2-16. Let Us Unite 	4:28
3-1. Ghost Town (Extended Version) 	6:02
3-2. Why? 	3:55
3-3. War Crimes (The Crime Remains The Same) 	6:09
3-4. Racist Friend (Instrumental) 	4:09
3-5. Bright Lights (Instrumental) 	4:40
3-6. Nelson Mandela 	4:34
3-7. Break Down The Door 	5:01
3-8. What I Like Most About You Is Your Girlfriend 
	5:22
3-9. Can't Get A Break 	6:29
3-10. Nelson Mandela '88 (The Whole World Is Watching 
Dance Mix) 	8:27
3-11. Ghost Dub '91 / Let Us Unite 	6:36

EAC-Log, CUE-Sheed & NFO:

Click to open spoiler
EAC extraction logfile from 9. June 2007, 15:02 for CD
The Specials / Stereo-Typical A’s, B’s And Rarities [Disc 1]

Used drive : HL-DT-STCD-RW GCE-8483B Adapter: 0 ID: 0
Read mode : Secure with NO C2, accurate stream, disable cache
Read offset correction : 6
Overread into Lead-In and Lead-Out : No

Used output format : C:\Program Files\FLAC\flac.exe (User Defined Encoder)
128 kBit/s
Additional command line options : -V -8 -T “artist=%a” -T “title=%t” -T “album=%g” -T “date=%y” -T “tracknumber=%n” -T “genre=%m” %s

Other options :
Fill up missing offset samples with silence : Yes
Delete leading and trailing silent blocks : No
Native Win32 interface for Win NT & 2000

Track 1
Filename G:\My Music\The Specials\The Specials – Stereo-Typical_ A’s, B’s And Rarities (FLAC)\Disc 1\01 Gangsters.wav

Pre-gap length 0:00:02.00

Peak level 98.8 %
Track quality 100.0 %
Test CRC 75B2C6D9
Copy CRC 75B2C6D9
Copy OK

Track 2
Filename G:\My Music\The Specials\The Specials – Stereo-Typical_ A’s, B’s And Rarities (FLAC)\Disc 1\02 A Message To You Rudy.wav

Pre-gap length 0:00:00.72

Peak level 98.8 %
Track quality 100.0 %
Test CRC 9EC0377D
Copy CRC 9EC0377D
Copy OK

Track 3
Filename G:\My Music\The Specials\The Specials – Stereo-Typical_ A’s, B’s And Rarities (FLAC)\Disc 1\03 Nite Klub.wav

Pre-gap length 0:00:00.68

Peak level 98.8 %
Track quality 100.0 %
Test CRC EAE7A476
Copy CRC EAE7A476
Copy OK

Track 4
Filename G:\My Music\The Specials\The Specials – Stereo-Typical_ A’s, B’s And Rarities (FLAC)\Disc 1\04 Too Much Too Young.wav

Pre-gap length 0:00:00.21

Peak level 98.8 %
Track quality 100.0 %
Test CRC 7E1AC6B0
Copy CRC 7E1AC6B0
Copy OK

Track 5
Filename G:\My Music\The Specials\The Specials – Stereo-Typical_ A’s, B’s And Rarities (FLAC)\Disc 1\05 Guns Of Navarone.wav

Peak level 98.8 %
Track quality 100.0 %
Test CRC AA0A7C0D
Copy CRC AA0A7C0D
Copy OK

Track 6
Filename G:\My Music\The Specials\The Specials – Stereo-Typical_ A’s, B’s And Rarities (FLAC)\Disc 1\06 Skinhead Symphony.wav

Pre-gap length 0:00:01.21

Peak level 98.8 %
Track quality 100.0 %
Test CRC A58067E9
Copy CRC A58067E9
Copy OK

Track 7
Filename G:\My Music\The Specials\The Specials – Stereo-Typical_ A’s, B’s And Rarities (FLAC)\Disc 1\07 Rat Race.wav

Pre-gap length 0:00:00.94

Peak level 98.8 %
Track quality 100.0 %
Test CRC 212F2491
Copy CRC 212F2491
Copy OK

Track 8
Filename G:\My Music\The Specials\The Specials – Stereo-Typical_ A’s, B’s And Rarities (FLAC)\Disc 1\08 Rude Boys Outa Jail.wav

Pre-gap length 0:00:01.76

Peak level 98.8 %
Track quality 99.9 %
Test CRC 187E19D5
Copy CRC 187E19D5
Copy OK

Track 9
Filename G:\My Music\The Specials\The Specials – Stereo-Typical_ A’s, B’s And Rarities (FLAC)\Disc 1\09 Stereotype.wav

Pre-gap length 0:00:01.09

Peak level 98.8 %
Track quality 100.0 %
Test CRC BDDD2211
Copy CRC BDDD2211
Copy OK

Track 10
Filename G:\My Music\The Specials\The Specials – Stereo-Typical_ A’s, B’s And Rarities (FLAC)\Disc 1\10 International Jet Set.wav

Pre-gap length 0:00:00.33

Peak level 98.8 %
Track quality 100.0 %
Test CRC 6247E166
Copy CRC 6247E166
Copy OK

Track 11
Filename G:\My Music\The Specials\The Specials – Stereo-Typical_ A’s, B’s And Rarities (FLAC)\Disc 1\11 Do Nothing.wav

Pre-gap length 0:00:01.09

Peak level 98.8 %
Track quality 100.0 %
Test CRC C2E22ED5
Copy CRC C2E22ED5
Copy OK

Track 12
Filename G:\My Music\The Specials\The Specials – Stereo-Typical_ A’s, B’s And Rarities (FLAC)\Disc 1\12 Maggie’s Farm.wav

Pre-gap length 0:00:01.08

Peak level 98.8 %
Track quality 100.0 %
Test CRC 900115F9
Copy CRC 900115F9
Copy OK

Track 13
Filename G:\My Music\The Specials\The Specials – Stereo-Typical_ A’s, B’s And Rarities (FLAC)\Disc 1\13 Braggin’ And Tryin’ Not To Lie.wav

Pre-gap length 0:00:01.00

Peak level 98.8 %
Track quality 100.0 %
Test CRC 66BED3DA
Copy CRC 66BED3DA
Copy OK

Track 14
Filename G:\My Music\The Specials\The Specials – Stereo-Typical_ A’s, B’s And Rarities (FLAC)\Disc 1\14 Rude Boys Outa Jail (Version).wav

Pre-gap length 0:00:01.48

Peak level 98.8 %
Track quality 100.0 %
Test CRC F072017E
Copy CRC F072017E
Copy OK

Track 15
Filename G:\My Music\The Specials\The Specials – Stereo-Typical_ A’s, B’s And Rarities (FLAC)\Disc 1\15 Ghost Town.wav

Pre-gap length 0:00:01.82

Peak level 98.8 %
Track quality 100.0 %
Test CRC 26ACEF2F
Copy CRC 26ACEF2F
Copy OK

Track 16
Filename G:\My Music\The Specials\The Specials – Stereo-Typical_ A’s, B’s And Rarities (FLAC)\Disc 1\16 Why .wav

Pre-gap length 0:00:01.05

Peak level 98.8 %
Track quality 100.0 %
Test CRC 3E20C6DD
Copy CRC 3E20C6DD
Copy OK

Track 17
Filename G:\My Music\The Specials\The Specials – Stereo-Typical_ A’s, B’s And Rarities (FLAC)\Disc 1\17 Friday Night, Saturday Morning.wav

Pre-gap length 0:00:01.77

Peak level 98.8 %
Track quality 100.0 %
Test CRC C4247EC2
Copy CRC C4247EC2
Copy OK

Track 18
Filename G:\My Music\The Specials\The Specials – Stereo-Typical_ A’s, B’s And Rarities (FLAC)\Disc 1\18 Concrete Jungle (Live).wav

Pre-gap length 0:00:00.50

Peak level 98.8 %
Track quality 99.8 %
Test CRC 6B15802D
Copy CRC 6B15802D
Copy OK

Track 19
Filename G:\My Music\The Specials\The Specials – Stereo-Typical_ A’s, B’s And Rarities (FLAC)\Disc 1\19 Racquel.wav

Pre-gap length 0:00:01.65

Peak level 98.8 %
Track quality 99.9 %
Test CRC 95CE0A49
Copy CRC 95CE0A49
Copy OK

No errors occured

End of status report

EAC extraction logfile from 9. June 2007, 15:24 for CD
The Specials / Stereo-Typical: A’s, B’s And Rarities [Disc 2]

Used drive : HL-DT-STCD-RW GCE-8483B Adapter: 0 ID: 0
Read mode : Secure with NO C2, accurate stream, disable cache
Read offset correction : 6
Overread into Lead-In and Lead-Out : No

Used output format : C:\Program Files\FLAC\flac.exe (User Defined Encoder)
128 kBit/s
Additional command line options : -V -8 -T “artist=%a” -T “title=%t” -T “album=%g” -T “date=%y” -T “tracknumber=%n” -T “genre=%m” %s

Other options :
Fill up missing offset samples with silence : Yes
Delete leading and trailing silent blocks : No
Native Win32 interface for Win NT & 2000

Track 1
Filename G:\My Music\The Specials\The Specials – Stereo-Typical_ A’s, B’s And Rarities (FLAC)\Disc 2\01 The Bolier.wav

Pre-gap length 0:00:02.00

Peak level 98.8 %
Track quality 100.0 %
Test CRC B83D9175
Copy CRC B83D9175
Copy OK

Track 2
Filename G:\My Music\The Specials\The Specials – Stereo-Typical_ A’s, B’s And Rarities (FLAC)\Disc 2\02 Theme From The Boiler.wav

Pre-gap length 0:00:00.30

Peak level 98.8 %
Track quality 100.0 %
Test CRC C7C85186
Copy CRC C7C85186
Copy OK

Track 3
Filename G:\My Music\The Specials\The Specials – Stereo-Typical_ A’s, B’s And Rarities (FLAC)\Disc 2\03 Jungle Music.wav

Pre-gap length 0:00:00.26

Peak level 98.8 %
Track quality 100.0 %
Test CRC C6408E4D
Copy CRC C6408E4D
Copy OK

Track 4
Filename G:\My Music\The Specials\The Specials – Stereo-Typical_ A’s, B’s And Rarities (FLAC)\Disc 2\04 Rasta Call You.wav

Pre-gap length 0:00:00.09

Peak level 98.8 %
Track quality 100.0 %
Test CRC 12CE9443
Copy CRC 12CE9443
Copy OK

Track 5
Filename G:\My Music\The Specials\The Specials – Stereo-Typical_ A’s, B’s And Rarities (FLAC)\Disc 2\05 Easter Island.wav

Pre-gap length 0:00:01.56

Peak level 98.8 %
Track quality 100.0 %
Test CRC 4F54C5AB
Copy CRC 4F54C5AB
Copy OK

Track 6
Filename G:\My Music\The Specials\The Specials – Stereo-Typical_ A’s, B’s And Rarities (FLAC)\Disc 2\06 War Crimes (The Crime Remains The Same).wav

Pre-gap length 0:00:01.22

Peak level 98.8 %
Track quality 100.0 %
Test CRC 3B7E9E3C
Copy CRC 3B7E9E3C
Copy OK

Track 7
Filename G:\My Music\The Specials\The Specials – Stereo-Typical_ A’s, B’s And Rarities (FLAC)\Disc 2\07 Version.wav

Pre-gap length 0:00:01.05

Peak level 98.8 %
Track quality 100.0 %
Test CRC D5DE1CE6
Copy CRC D5DE1CE6
Copy OK

Track 8
Filename G:\My Music\The Specials\The Specials – Stereo-Typical_ A’s, B’s And Rarities (FLAC)\Disc 2\08 Racist Friend.wav

Pre-gap length 0:00:01.09

Peak level 98.8 %
Track quality 100.0 %
Test CRC 0A06476E
Copy CRC 0A06476E
Copy OK

Track 9
Filename G:\My Music\The Specials\The Specials – Stereo-Typical_ A’s, B’s And Rarities (FLAC)\Disc 2\09 Bright Lights.wav

Pre-gap length 0:00:01.46

Peak level 98.8 %
Track quality 100.0 %
Test CRC 9DAA202D
Copy CRC 9DAA202D
Copy OK

Track 10
Filename G:\My Music\The Specials\The Specials – Stereo-Typical_ A’s, B’s And Rarities (FLAC)\Disc 2\10 Nelson Mandela.wav

Pre-gap length 0:00:00.52

Peak level 98.8 %
Track quality 100.0 %
Test CRC 95084848
Copy CRC 95084848
Copy OK

Track 11
Filename G:\My Music\The Specials\The Specials – Stereo-Typical_ A’s, B’s And Rarities (FLAC)\Disc 2\11 Break Down The Door.wav

Pre-gap length 0:00:00.38

Peak level 98.8 %
Track quality 100.0 %
Test CRC 299B4CE4
Copy CRC 299B4CE4
Copy OK

Track 12
Filename G:\My Music\The Specials\The Specials – Stereo-Typical_ A’s, B’s And Rarities (FLAC)\Disc 2\12 What i Like Most About You is Your Girlfriend.wav

Peak level 98.8 %
Track quality 100.0 %
Test CRC D7772D48
Copy CRC D7772D48
Copy OK

Track 13
Filename G:\My Music\The Specials\The Specials – Stereo-Typical_ A’s, B’s And Rarities (FLAC)\Disc 2\13 Can’t Get a Break.wav

Pre-gap length 0:00:00.45

Peak level 98.8 %
Track quality 100.0 %
Test CRC D8D3D9B1
Copy CRC D8D3D9B1
Copy OK

Track 14
Filename G:\My Music\The Specials\The Specials – Stereo-Typical_ A’s, B’s And Rarities (FLAC)\Disc 2\14 Nelson Mandela ’88.wav

Pre-gap length 0:00:00.92

Peak level 98.8 %
Track quality 100.0 %
Test CRC 594E2160
Copy CRC 594E2160
Copy OK

Track 15
Filename G:\My Music\The Specials\The Specials – Stereo-Typical_ A’s, B’s And Rarities (FLAC)\Disc 2\15 Ghost Dub ’91.wav

Pre-gap length 0:00:00.40

Peak level 98.8 %
Track quality 99.9 %
Test CRC 820B27CD
Copy CRC 820B27CD
Copy OK

Track 16
Filename G:\My Music\The Specials\The Specials – Stereo-Typical_ A’s, B’s And Rarities (FLAC)\Disc 2\16 Let us Unite.wav

Pre-gap length 0:00:00.72

Peak level 98.8 %
Track quality 99.8 %
Test CRC FA40C2A7
Copy CRC FA40C2A7
Copy OK

No errors occured

End of status report

EAC extraction logfile from 9. June 2007, 15:44 for CD
The Specials / Stereo-Typical: A’s, B’s And Rarities [Disc 3]

Used drive : HL-DT-STCD-RW GCE-8483B Adapter: 0 ID: 0
Read mode : Secure with NO C2, accurate stream, disable cache
Read offset correction : 6
Overread into Lead-In and Lead-Out : No

Used output format : C:\Program Files\FLAC\flac.exe (User Defined Encoder)
128 kBit/s
Additional command line options : -V -8 -T “artist=%a” -T “title=%t” -T “album=%g” -T “date=%y” -T “tracknumber=%n” -T “genre=%m” %s

Other options :
Fill up missing offset samples with silence : Yes
Delete leading and trailing silent blocks : No
Native Win32 interface for Win NT & 2000

Track 1
Filename G:\My Music\The Specials\The Specials – Stereo-Typical_ A’s, B’s And Rarities (FLAC)\Disc 3\01 Ghost town (Extended ver).wav

Pre-gap length 0:00:02.00

Peak level 98.8 %
Track quality 99.9 %
Test CRC 64D78BB3
Copy CRC 64D78BB3
Copy OK

Track 2
Filename G:\My Music\The Specials\The Specials – Stereo-Typical_ A’s, B’s And Rarities (FLAC)\Disc 3\02 Why.wav

Pre-gap length 0:00:00.76

Peak level 98.8 %
Track quality 100.0 %
Test CRC E8E560BF
Copy CRC E8E560BF
Copy OK

Track 3
Filename G:\My Music\The Specials\The Specials – Stereo-Typical_ A’s, B’s And Rarities (FLAC)\Disc 3\03 War crimes.wav

Pre-gap length 0:00:01.09

Peak level 98.8 %
Track quality 100.0 %
Test CRC A6B073CC
Copy CRC A6B073CC
Copy OK

Track 4
Filename G:\My Music\The Specials\The Specials – Stereo-Typical_ A’s, B’s And Rarities (FLAC)\Disc 3\04 Racist friend (Instrumental).wav

Pre-gap length 0:00:01.00

Peak level 98.8 %
Track quality 100.0 %
Test CRC 8F7D198E
Copy CRC 8F7D198E
Copy OK

Track 5
Filename G:\My Music\The Specials\The Specials – Stereo-Typical_ A’s, B’s And Rarities (FLAC)\Disc 3\05 Bright lights (Instrumental).wav

Pre-gap length 0:00:01.00

Peak level 98.8 %
Track quality 99.9 %
Test CRC A64A64FB
Copy CRC A64A64FB
Copy OK

Track 6
Filename G:\My Music\The Specials\The Specials – Stereo-Typical_ A’s, B’s And Rarities (FLAC)\Disc 3\06 Nelson Mandela.wav

Pre-gap length 0:00:00.97

Peak level 98.8 %
Track quality 100.0 %
Test CRC E2074731
Copy CRC E2074731
Copy OK

Track 7
Filename G:\My Music\The Specials\The Specials – Stereo-Typical_ A’s, B’s And Rarities (FLAC)\Disc 3\07 Break down the door.wav

Pre-gap length 0:00:00.12

Peak level 98.8 %
Track quality 100.0 %
Test CRC 5F5BD143
Copy CRC 5F5BD143
Copy OK

Track 8
Filename G:\My Music\The Specials\The Specials – Stereo-Typical_ A’s, B’s And Rarities (FLAC)\Disc 3\08 What I like most about you is your girlfriend.wav

Pre-gap length 0:00:01.14

Peak level 98.8 %
Track quality 100.0 %
Test CRC E834AD60
Copy CRC E834AD60
Copy OK

Track 9
Filename G:\My Music\The Specials\The Specials – Stereo-Typical_ A’s, B’s And Rarities (FLAC)\Disc 3\09 Can’t get a break.wav

Pre-gap length 0:00:01.33

Peak level 98.8 %
Track quality 99.9 %
Test CRC 15A70339
Copy CRC 15A70339
Copy OK

Track 10
Filename G:\My Music\The Specials\The Specials – Stereo-Typical_ A’s, B’s And Rarities (FLAC)\Disc 3\10 Nelson Mandela ’88.wav

Pre-gap length 0:00:00.68

Peak level 98.8 %
Track quality 99.9 %
Test CRC 55C455AA
Copy CRC 55C455AA
Copy OK

Track 11
Filename G:\My Music\The Specials\The Specials – Stereo-Typical_ A’s, B’s And Rarities (FLAC)\Disc 3\11 Ghost dub ’91-Let us unite.wav

Pre-gap length 0:00:01.42

Peak level 98.8 %
Track quality 99.9 %
Test CRC 4814D026
Copy CRC 4814D026
Copy OK

No errors occured

End of status report

REM DISCID 1C0F0513
REM COMMENT “ExactAudioCopy v0.95b4”
PERFORMER “The Specials”
TITLE “Stereo-Typical A’s, B’s And Rarities [Disc 1]”
FILE “01 Gangsters.wav” WAVE
TRACK 01 AUDIO
TITLE “Gangsters”
PERFORMER “The Specials”
INDEX 01 00:00:00
TRACK 02 AUDIO
TITLE “A Message To You Rudy”
PERFORMER “The Specials”
INDEX 00 02:47:54
FILE “02 A Message To You Rudy.wav” WAVE
INDEX 01 00:00:00
TRACK 03 AUDIO
TITLE “Nite Klub”
PERFORMER “The Specials”
INDEX 00 02:54:62
FILE “03 Nite Klub.wav” WAVE
INDEX 01 00:00:00
TRACK 04 AUDIO
TITLE “Too Much Too Young”
PERFORMER “The Specials”
INDEX 00 03:09:33
FILE “04 Too Much Too Young.wav” WAVE
INDEX 01 00:00:00
FILE “05 Guns Of Navarone.wav” WAVE
TRACK 05 AUDIO
TITLE “Guns Of Navarone”
PERFORMER “The Specials”
INDEX 01 00:00:00
TRACK 06 AUDIO
TITLE “Skinhead Symphony”
PERFORMER “The Specials”
INDEX 00 02:19:03
FILE “06 Skinhead Symphony.wav” WAVE
INDEX 01 00:00:00
TRACK 07 AUDIO
TITLE “Rat Race”
PERFORMER “The Specials”
INDEX 00 06:37:01
FILE “07 Rat Race.wav” WAVE
INDEX 01 00:00:00
TRACK 08 AUDIO
TITLE “Rude Boys Outa Jail”
PERFORMER “The Specials”
INDEX 00 03:08:69
FILE “08 Rude Boys Outa Jail.wav” WAVE
INDEX 01 00:00:00
TRACK 09 AUDIO
TITLE “Stereotype”
PERFORMER “The Specials”
INDEX 00 02:39:48
FILE “09 Stereotype.wav” WAVE
INDEX 01 00:00:00
TRACK 10 AUDIO
TITLE “International Jet Set”
PERFORMER “The Specials”
INDEX 00 03:52:14
FILE “10 International Jet Set.wav” WAVE
INDEX 01 00:00:00
TRACK 11 AUDIO
TITLE “Do Nothing”
PERFORMER “The Specials”
INDEX 00 04:14:63
FILE “11 Do Nothing.wav” WAVE
INDEX 01 00:00:00
TRACK 12 AUDIO
TITLE “Maggie’s Farm”
PERFORMER “The Specials”
INDEX 00 03:40:39
FILE “12 Maggie’s Farm.wav” WAVE
INDEX 01 00:00:00
TRACK 13 AUDIO
TITLE “Braggin’ And Tryin’ Not To Lie”
PERFORMER “The Specials”
INDEX 00 03:32:27
FILE “13 Braggin’ And Tryin’ Not To Lie.wav” WAVE
INDEX 01 00:00:00
TRACK 14 AUDIO
TITLE “Rude Boys Outa Jail (Version)”
PERFORMER “The Specials”
INDEX 00 03:23:10
FILE “14 Rude Boys Outa Jail (Version).wav” WAVE
INDEX 01 00:00:00
TRACK 15 AUDIO
TITLE “Ghost Town”
PERFORMER “The Specials”
INDEX 00 04:06:22
FILE “15 Ghost Town.wav” WAVE
INDEX 01 00:00:00
TRACK 16 AUDIO
TITLE “Why?”
PERFORMER “The Specials”
INDEX 00 03:40:74
FILE “16 Why .wav” WAVE
INDEX 01 00:00:00
TRACK 17 AUDIO
TITLE “Friday Night, Saturday Morning”
PERFORMER “The Specials”
INDEX 00 02:55:01
FILE “17 Friday Night, Saturday Morning.wav” WAVE
INDEX 01 00:00:00
TRACK 18 AUDIO
TITLE “Concrete Jungle (Live)”
PERFORMER “The Specials”
INDEX 00 03:33:13
FILE “18 Concrete Jungle (Live).wav” WAVE
INDEX 01 00:00:00
TRACK 19 AUDIO
TITLE “Racquel”
PERFORMER “The Specials”
INDEX 00 03:07:67
FILE “19 Racquel.wav” WAVE
INDEX 01 00:00:00

REM GENRE Ska
REM DISCID C90FF610
REM COMMENT “ExactAudioCopy v0.95b4”
PERFORMER “The Specials”
TITLE “Stereo-Typical: A’s, B’s And Rarities [Disc 2]”
FILE “01 The Bolier.wav” WAVE
TRACK 01 AUDIO
TITLE “The Bolier”
PERFORMER “The Specials”
INDEX 01 00:00:00
TRACK 02 AUDIO
TITLE “Theme From The Boiler”
PERFORMER “The Specials”
INDEX 00 05:46:18
FILE “02 Theme From The Boiler.wav” WAVE
INDEX 01 00:00:00
TRACK 03 AUDIO
TITLE “Jungle Music”
PERFORMER “The Specials”
INDEX 00 04:13:33
FILE “03 Jungle Music.wav” WAVE
INDEX 01 00:00:00
TRACK 04 AUDIO
TITLE “Rasta Call You”
PERFORMER “The Specials”
INDEX 00 04:00:15
FILE “04 Rasta Call You.wav” WAVE
INDEX 01 00:00:00
TRACK 05 AUDIO
TITLE “Easter Island”
PERFORMER “The Specials”
INDEX 00 03:36:63
FILE “05 Easter Island.wav” WAVE
INDEX 01 00:00:00
TRACK 06 AUDIO
TITLE “War Crimes (The Crime Remains The Same)”
PERFORMER “The Specials”
INDEX 00 04:10:42
FILE “06 War Crimes (The Crime Remains The Same).wav” WAVE
INDEX 01 00:00:00
TRACK 07 AUDIO
TITLE “Version”
PERFORMER “The Specials”
INDEX 00 04:01:38
FILE “07 Version.wav” WAVE
INDEX 01 00:00:00
TRACK 08 AUDIO
TITLE “Racist Friend”
PERFORMER “The Specials”
INDEX 00 03:43:23
FILE “08 Racist Friend.wav” WAVE
INDEX 01 00:00:00
TRACK 09 AUDIO
TITLE “Bright Lights”
PERFORMER “The Specials”
INDEX 00 04:02:12
FILE “09 Bright Lights.wav” WAVE
INDEX 01 00:00:00
TRACK 10 AUDIO
TITLE “Nelson Mandela”
PERFORMER “The Specials”
INDEX 00 03:46:48
FILE “10 Nelson Mandela.wav” WAVE
INDEX 01 00:00:00
TRACK 11 AUDIO
TITLE “Break Down The Door”
PERFORMER “The Specials”
INDEX 00 04:13:00
FILE “11 Break Down The Door.wav” WAVE
INDEX 01 00:00:00
FILE “12 What i Like Most About You is Your Girlfriend.wav” WAVE
TRACK 12 AUDIO
TITLE “What i Like Most About You is Your Girlfriend”
PERFORMER “The Specials”
INDEX 01 00:00:00
TRACK 13 AUDIO
TITLE “Can’t Get a Break”
PERFORMER “The Specials”
INDEX 00 04:05:11
FILE “13 Can’t Get a Break.wav” WAVE
INDEX 01 00:00:00
TRACK 14 AUDIO
TITLE “Nelson Mandela ’88”
PERFORMER “The Specials”
INDEX 00 04:55:65
FILE “14 Nelson Mandela ’88.wav” WAVE
INDEX 01 00:00:00
TRACK 15 AUDIO
TITLE “Ghost Dub ’91”
PERFORMER “The Specials”
INDEX 00 04:46:14
FILE “15 Ghost Dub ’91.wav” WAVE
INDEX 01 00:00:00
TRACK 16 AUDIO
TITLE “Let us Unite”
PERFORMER “The Specials”
INDEX 00 04:18:24
FILE “16 Let us Unite.wav” WAVE
INDEX 01 00:00:00

REM GENRE Ska
REM DATE 2000
REM DISCID 810E720B
REM COMMENT “ExactAudioCopy v0.95b4”
PERFORMER “The Specials”
TITLE “Stereo-Typical: A’s, B’s And Rarities [Disc 3]”
FILE “01 Ghost town (Extended ver).wav” WAVE
TRACK 01 AUDIO
TITLE “Ghost town (Extended ver)”
PERFORMER “The Specials”
INDEX 01 00:00:00
TRACK 02 AUDIO
TITLE “Why”
PERFORMER “The Specials”
INDEX 00 06:02:13
FILE “02 Why.wav” WAVE
INDEX 01 00:00:00
TRACK 03 AUDIO
TITLE “War crimes”
PERFORMER “The Specials”
INDEX 00 03:55:08
FILE “03 War crimes.wav” WAVE
INDEX 01 00:00:00
TRACK 04 AUDIO
TITLE “Racist friend (Instrumental)”
PERFORMER “The Specials”
INDEX 00 06:09:34
FILE “04 Racist friend (Instrumental).wav” WAVE
INDEX 01 00:00:00
TRACK 05 AUDIO
TITLE “Bright lights (Instrumental)”
PERFORMER “The Specials”
INDEX 00 04:09:65
FILE “05 Bright lights (Instrumental).wav” WAVE
INDEX 01 00:00:00
TRACK 06 AUDIO
TITLE “Nelson Mandela”
PERFORMER “The Specials”
INDEX 00 04:40:20
FILE “06 Nelson Mandela.wav” WAVE
INDEX 01 00:00:00
TRACK 07 AUDIO
TITLE “Break down the door”
PERFORMER “The Specials”
INDEX 00 04:34:18
FILE “07 Break down the door.wav” WAVE
INDEX 01 00:00:00
TRACK 08 AUDIO
TITLE “What I like most about you is your girlfriend”
PERFORMER “The Specials”
INDEX 00 05:01:07
FILE “08 What I like most about you is your girlfriend.wav” WAVE
INDEX 01 00:00:00
TRACK 09 AUDIO
TITLE “Can’t get a break”
PERFORMER “The Specials”
INDEX 00 05:22:61
FILE “09 Can’t get a break.wav” WAVE
INDEX 01 00:00:00
TRACK 10 AUDIO
TITLE “Nelson Mandela ’88”
PERFORMER “The Specials”
INDEX 00 06:29:49
FILE “10 Nelson Mandela ’88.wav” WAVE
INDEX 01 00:00:00
TRACK 11 AUDIO
TITLE “Ghost dub ’91-Let us unite”
PERFORMER “The Specials”
INDEX 00 08:27:45
FILE “11 Ghost dub ’91-Let us unite.wav” WAVE
INDEX 01 00:00:00


Leave a Reply

Your email address will not be published. Required fields are marked *

This site uses Akismet to reduce spam. Learn how your comment data is processed.