The Special AKA – The Studio With The Special AKA




Artist: The Special AKA
Year: 1984
Genre: Ska
Notes: Discogs
Add. Notes:
Cover incl.: Yes
Encoder: FLAC
Bitrate: ~900 kBit/s (44.1 kHz/16 Bit/s)
Log & Cue incl.: Yes
Size: 270,94 MB
Password: “slam” (without ” “)


All Downloads/Hosters are compatible

Download 1
Turbobit.net
Rapidgator.net
KatFile.com
UploadRar.com
Download 2
Turbobit.net
Rapidgator.net
KatFile.com
UploadRar.com

Tracklist:

1 - Bright Lights - 4:10
2 - Lonely Crowd - 3:52
3 - House Bound - 4:10
4 - Girlfriend - 4:49
5 - Night On The Tiles - 3:03
6 - Nelson Mandela - 4:07
7 - War Crimes - 6:14
8 - Racist Friend - 3:47
9 - Alcohol - 5:00
10 - Break Down The Door - 3:34

EAC-Log, CUE-Sheed & NFO:

Click to open spoiler
Exact Audio Copy V0.99 prebeta 3 from 28. July 2007

EAC extraction logfile from 2. February 2008, 8:55

Special AKA / In The Studio

Used drive : HL-DT-STDVD+RW GCA-4040N Adapter: 0 ID: 1

Read mode : Secure
Utilize accurate stream : Yes
Defeat audio cache : Yes
Make use of C2 pointers : No

Read offset correction : 48
Overread into Lead-In and Lead-Out : No
Fill up missing offset samples with silence : Yes
Delete leading and trailing silent blocks : No
Null samples used in CRC calculations : Yes
Used interface : Native Win32 interface for Win NT & 2000
Gap handling : Appended to previous track

Used output format : User Defined Encoder
Selected bitrate : 128 kBit/s
Quality : High
Add ID3 tag : No
Command line compressor : C:\Program Files\Exact Audio Copy\Flac\flac.exe
Additional command line options : -V -8 -T “artist=%a” -T “title=%t” -T “album=%g” -T “date=%y” -T “tracknumber=%n” -T “genre=%m” %s

TOC of the extracted CD

Track | Start | Length | Start sector | End sector
———————————————————
1 | 0:00.00 | 4:11.32 | 0 | 18856
2 | 4:11.32 | 3:51.73 | 18857 | 36254
3 | 8:03.30 | 4:50.12 | 36255 | 58016
4 | 12:53.42 | 4:12.50 | 58017 | 76966
5 | 17:06.17 | 3:03.53 | 76967 | 90744
6 | 20:09.70 | 4:07.27 | 90745 | 109296
7 | 24:17.22 | 6:13.33 | 109297 | 137304
8 | 30:30.55 | 3:49.07 | 137305 | 154486
9 | 34:19.62 | 5:00.63 | 154487 | 177049
10 | 39:20.50 | 3:34.15 | 177050 | 193114
11 | 45:26.65 | 14:20.06 | 204515 | 269020

Track 1

Filename C:\Program Files\Exact Audio Copy\Flac\Special AKA,In The Studio,01 – Bright Lights.wav

Pre-gap length 0:00:02.00

Peak level 93.7 %
Track quality 100.0 %
Test CRC 95956A64
Copy CRC 95956A64
Track not present in AccurateRip database
Copy OK

Track 2

Filename C:\Program Files\Exact Audio Copy\Flac\Special AKA,In The Studio,02 – Lonely Crowd.wav

Peak level 94.4 %
Track quality 100.0 %
Test CRC C3087A2B
Copy CRC C3087A2B
Track not present in AccurateRip database
Copy OK

Track 3

Filename C:\Program Files\Exact Audio Copy\Flac\Special AKA,In The Studio,03 – Girlfriend.wav

Peak level 95.6 %
Track quality 100.0 %
Test CRC D0AD4BB3
Copy CRC D0AD4BB3
Track not present in AccurateRip database
Copy OK

Track 4

Filename C:\Program Files\Exact Audio Copy\Flac\Special AKA,In The Studio,04 – House Bound.wav

Peak level 95.6 %
Track quality 99.9 %
Test CRC D0E9B70E
Copy CRC D0E9B70E
Track not present in AccurateRip database
Copy OK

Track 5

Filename C:\Program Files\Exact Audio Copy\Flac\Special AKA,In The Studio,05 – Night On The Tiles.wav

Peak level 94.1 %
Track quality 100.0 %
Test CRC E7129021
Copy CRC E7129021
Track not present in AccurateRip database
Copy OK

Track 6

Filename C:\Program Files\Exact Audio Copy\Flac\Special AKA,In The Studio,06 – Nelson Mandela.wav

Pre-gap length 0:00:00.33

Peak level 92.9 %
Track quality 99.9 %
Test CRC F49B418D
Copy CRC F49B418D
Track not present in AccurateRip database
Copy OK

Track 7

Filename C:\Program Files\Exact Audio Copy\Flac\Special AKA,In The Studio,07 – War Crimes.wav

Peak level 94.7 %
Track quality 100.0 %
Test CRC 617C62F7
Copy CRC 617C62F7
Track not present in AccurateRip database
Copy OK

Track 8

Filename C:\Program Files\Exact Audio Copy\Flac\Special AKA,In The Studio,08 – Racist Friend.wav

Peak level 94.5 %
Track quality 100.0 %
Test CRC 6C16B015
Copy CRC 6C16B015
Track not present in AccurateRip database
Copy OK

Track 9

Filename C:\Program Files\Exact Audio Copy\Flac\Special AKA,In The Studio,09 – Alcohol.wav

Peak level 95.2 %
Track quality 99.9 %
Test CRC 37255881
Copy CRC 37255881
Track not present in AccurateRip database
Copy OK

Track 10

Filename C:\Program Files\Exact Audio Copy\Flac\Special AKA,In The Studio,10 – Break Down The Door.wav

Peak level 94.7 %
Track quality 99.9 %
Test CRC 269D277C
Copy CRC 269D277C
Track not present in AccurateRip database
Copy OK

None of the tracks are present in the AccurateRip database

No errors occurred

End of status report

REM GENRE Ska
REM DATE 1984
REM DISCID 8A0E020B
REM COMMENT “ExactAudioCopy v0.99pb3”
PERFORMER “Special AKA”
TITLE “In The Studio”
FILE “Special AKA,In The Studio,01 – Bright Lights.wav” WAVE
TRACK 01 AUDIO
TITLE “Bright Lights”
PERFORMER “Special AKA”
INDEX 01 00:00:00
FILE “Special AKA,In The Studio,02 – Lonely Crowd.wav” WAVE
TRACK 02 AUDIO
TITLE “Lonely Crowd”
PERFORMER “Special AKA”
INDEX 01 00:00:00
FILE “Special AKA,In The Studio,03 – Girlfriend.wav” WAVE
TRACK 03 AUDIO
TITLE “Girlfriend”
PERFORMER “Special AKA”
INDEX 01 00:00:00
FILE “Special AKA,In The Studio,04 – House Bound.wav” WAVE
TRACK 04 AUDIO
TITLE “House Bound”
PERFORMER “Special AKA”
INDEX 01 00:00:00
FILE “Special AKA,In The Studio,05 – Night On The Tiles.wav” WAVE
TRACK 05 AUDIO
TITLE “Night On The Tiles”
PERFORMER “Special AKA”
INDEX 01 00:00:00
TRACK 06 AUDIO
TITLE “Nelson Mandela”
PERFORMER “Special AKA”
INDEX 00 03:03:28
FILE “Special AKA,In The Studio,06 – Nelson Mandela.wav” WAVE
INDEX 01 00:00:00
FILE “Special AKA,In The Studio,07 – War Crimes.wav” WAVE
TRACK 07 AUDIO
TITLE “War Crimes”
PERFORMER “Special AKA”
INDEX 01 00:00:00
FILE “Special AKA,In The Studio,08 – Racist Friend.wav” WAVE
TRACK 08 AUDIO
TITLE “Racist Friend”
PERFORMER “Special AKA”
INDEX 01 00:00:00
FILE “Special AKA,In The Studio,09 – Alcohol.wav” WAVE
TRACK 09 AUDIO
TITLE “Alcohol”
PERFORMER “Special AKA”
INDEX 01 00:00:00
FILE “Special AKA,In The Studio,10 – Break Down The Door.wav” WAVE
TRACK 10 AUDIO
TITLE “Break Down The Door”
PERFORMER “Special AKA”
INDEX 01 00:00:00
TRACK 11 MODEx/2xxx
TITLE “Data Track”
PERFORMER “Special AKA”
INDEX 00 03:34:15


Leave a Reply

Your email address will not be published. Required fields are marked *

Enter the text from the image below
 

This site uses Akismet to reduce spam. Learn how your comment data is processed.