The Sex Pistols – Live At Chelmsford Top Security Prison




Artist: The Sex Pistols
Year: 1990
Genre: Punk
Notes: Discogs
Add. Notes:
Cover incl.: Yes
Encoder: FLAC
Bitrate: ~1000 kBit/s (44.1 kHz/16 Bit/s)
Log & Cue incl.: Yes
Size: 358,97 MB
Password: “slam” (without ” “)


All Downloads/Hosters are compatible

Download 1
Turbobit.net
Rapidgator.net
UploadEver.com
JustUpload.io
UsersDrive.com
Download 2
Turbobit.net
Rapidgator.net
UploadEver.com
JustUpload.io
UsersDrive.com
Download 3
Turbobit.net
Rapidgator.net
UploadEver.com
JustUpload.io
UsersDrive.com

Tracklist:

1 Satellite 
2 Submission 
3 Liar 
4 No Fun 
5 Pretty Vacant 
6 Problems 
7 I Wanna Be Me 
8 Lazy Sod 
9 New York 
10 No Lip 
11 Stepping Stone 
12 Substitute 
13 Anarchy In The Prison 
14 Did You No Wrong

EAC-Log, CUE-Sheed & NFO:

Click to open spoiler
Exact Audio Copy V0.99 prebeta 4 from 23. January 2008

EAC extraction logfile from 7. February 2010, 19:24

Sex Pistols / Live at Chelmsford Top Security Prison

Used drive : TSSTcorpDVD+-RW TS-H653F Adapter: 0 ID: 1

Read mode : Secure
Utilize accurate stream : Yes
Defeat audio cache : Yes
Make use of C2 pointers : No

Read offset correction : 6
Overread into Lead-In and Lead-Out : No
Fill up missing offset samples with silence : Yes
Delete leading and trailing silent blocks : No
Null samples used in CRC calculations : Yes
Used interface : Native Win32 interface for Win NT & 2000
Gap handling : Appended to previous track

Used output format : User Defined Encoder
Selected bitrate : 128 kBit/s
Quality : High
Add ID3 tag : No
Command line compressor : C:\Program Files\Exact Audio Copy\Flac\flac.exe
Additional command line options : -V -8 -T “artist=%a” -T “title=%t” -T “album=%g” -T “date=%y” -T “tracknumber=%n” -T “genre=%m” %s

TOC of the extracted CD

Track | Start | Length | Start sector | End sector
———————————————————
1 | 0:00.50 | 5:15.20 | 50 | 23694
2 | 5:15.70 | 4:41.72 | 23695 | 44841
3 | 9:57.67 | 3:38.03 | 44842 | 61194
4 | 13:35.70 | 4:31.67 | 61195 | 81586
5 | 18:07.62 | 3:42.20 | 81587 | 98256
6 | 21:50.07 | 4:18.48 | 98257 | 117654
7 | 26:08.55 | 3:09.12 | 117655 | 131841
8 | 29:17.67 | 2:21.25 | 131842 | 142441
9 | 31:39.17 | 3:16.43 | 142442 | 157184
10 | 34:55.60 | 3:36.30 | 157185 | 173414
11 | 38:32.15 | 3:57.72 | 173415 | 191261
12 | 42:30.12 | 3:08.30 | 191262 | 205391
13 | 45:38.42 | 4:19.10 | 205392 | 224826
14 | 49:57.52 | 4:33.15 | 224827 | 245316

Track 1

Filename K:\EAC rips\Sex Pistols – 1990 – Live at Chelmsford Top Security Prison [FLAC]\01 – Satellite.wav

Pre-gap length 0:00:02.66

Peak level 100.0 %
Track quality 100.0 %
Test CRC 66BF1FBE
Copy CRC 66BF1FBE
Accurately ripped (confidence 3) [25E359AD]
Copy OK

Track 2

Filename K:\EAC rips\Sex Pistols – 1990 – Live at Chelmsford Top Security Prison [FLAC]\02 – Submission.wav

Peak level 100.0 %
Track quality 100.0 %
Test CRC B22881BB
Copy CRC B22881BB
Accurately ripped (confidence 3) [F8A77FAB]
Copy OK

Track 3

Filename K:\EAC rips\Sex Pistols – 1990 – Live at Chelmsford Top Security Prison [FLAC]\03 – Liar.wav

Peak level 100.0 %
Track quality 100.0 %
Test CRC 2C0E9AE9
Copy CRC 2C0E9AE9
Accurately ripped (confidence 3) [7175EBD7]
Copy OK

Track 4

Filename K:\EAC rips\Sex Pistols – 1990 – Live at Chelmsford Top Security Prison [FLAC]\04 – No Fun.wav

Peak level 100.0 %
Track quality 100.0 %
Test CRC 84B7E9F5
Copy CRC 84B7E9F5
Accurately ripped (confidence 3) [4314ACFB]
Copy OK

Track 5

Filename K:\EAC rips\Sex Pistols – 1990 – Live at Chelmsford Top Security Prison [FLAC]\05 – Pretty Vacant.wav

Peak level 100.0 %
Track quality 100.0 %
Test CRC 57780AB4
Copy CRC 57780AB4
Accurately ripped (confidence 3) [A1C1A5D0]
Copy OK

Track 6

Filename K:\EAC rips\Sex Pistols – 1990 – Live at Chelmsford Top Security Prison [FLAC]\06 – Problems.wav

Peak level 100.0 %
Track quality 99.9 %
Test CRC 96C4814F
Copy CRC 96C4814F
Accurately ripped (confidence 3) [9A6A2B8D]
Copy OK

Track 7

Filename K:\EAC rips\Sex Pistols – 1990 – Live at Chelmsford Top Security Prison [FLAC]\07 – I Wanna Be Me.wav

Peak level 100.0 %
Track quality 100.0 %
Test CRC 1C5D8C0E
Copy CRC 1C5D8C0E
Accurately ripped (confidence 2) [003EF4BB]
Copy OK

Track 8

Filename K:\EAC rips\Sex Pistols – 1990 – Live at Chelmsford Top Security Prison [FLAC]\08 – Lazy Sod.wav

Peak level 100.0 %
Track quality 100.0 %
Test CRC 77E6E4B7
Copy CRC 77E6E4B7
Accurately ripped (confidence 3) [8E16AE90]
Copy OK

Track 9

Filename K:\EAC rips\Sex Pistols – 1990 – Live at Chelmsford Top Security Prison [FLAC]\09 – New York.wav

Peak level 100.0 %
Track quality 99.9 %
Test CRC 0DF11F7D
Copy CRC 0DF11F7D
Accurately ripped (confidence 3) [7CD4687C]
Copy OK

Track 10

Filename K:\EAC rips\Sex Pistols – 1990 – Live at Chelmsford Top Security Prison [FLAC]\10 – No Lip.wav

Peak level 100.0 %
Track quality 100.0 %
Test CRC 3C66300F
Copy CRC 3C66300F
Accurately ripped (confidence 3) [05A874B8]
Copy OK

Track 11

Filename K:\EAC rips\Sex Pistols – 1990 – Live at Chelmsford Top Security Prison [FLAC]\11 – Stepping Stone.wav

Peak level 100.0 %
Track quality 100.0 %
Test CRC 5C090090
Copy CRC 5C090090
Accurately ripped (confidence 3) [ACD15C3F]
Copy OK

Track 12

Filename K:\EAC rips\Sex Pistols – 1990 – Live at Chelmsford Top Security Prison [FLAC]\12 – Substitute.wav

Peak level 100.0 %
Track quality 100.0 %
Test CRC 99EEE88C
Copy CRC 99EEE88C
Accurately ripped (confidence 3) [AB9F7C38]
Copy OK

Track 13

Filename K:\EAC rips\Sex Pistols – 1990 – Live at Chelmsford Top Security Prison [FLAC]\13 – Anarchy in the UK.wav

Peak level 100.0 %
Track quality 100.0 %
Test CRC FDF70A0F
Copy CRC FDF70A0F
Accurately ripped (confidence 3) [36C6101F]
Copy OK

Track 14

Filename K:\EAC rips\Sex Pistols – 1990 – Live at Chelmsford Top Security Prison [FLAC]\14 – Did You No Wrong.wav

Peak level 100.0 %
Track quality 100.0 %
Test CRC 5CEF5D18
Copy CRC 5CEF5D18
Accurately ripped (confidence 3) [498CC930]
Copy OK

All tracks accurately ripped

No errors occurred

End of status report

REM GENRE Punk
REM DATE 1990
REM DISCID CF0CC60E
REM COMMENT “ExactAudioCopy v0.99pb4”
FILE “01 – Satellite.flac” FLAC
TRACK 01 AUDIO
PREGAP 00:00:50
INDEX 01 00:00:00
FILE “02 – Submission.flac” FLAC
TRACK 02 AUDIO
INDEX 01 00:00:00
FILE “03 – Liar.flac” FLAC
TRACK 03 AUDIO
INDEX 01 00:00:00
FILE “04 – No Fun.flac” FLAC
TRACK 04 AUDIO
INDEX 01 00:00:00
FILE “05 – Pretty Vacant.flac” FLAC
TRACK 05 AUDIO
INDEX 01 00:00:00
FILE “06 – Problems.flac” FLAC
TRACK 06 AUDIO
INDEX 01 00:00:00
FILE “07 – I Wanna Be Me.flac” FLAC
TRACK 07 AUDIO
INDEX 01 00:00:00
FILE “08 – Lazy Sod.flac” FLAC
TRACK 08 AUDIO
INDEX 01 00:00:00
FILE “09 – New York.flac” FLAC
TRACK 09 AUDIO
INDEX 01 00:00:00
FILE “10 – No Lip.flac” FLAC
TRACK 10 AUDIO
INDEX 01 00:00:00
FILE “11 – Stepping Stone.flac” FLAC
TRACK 11 AUDIO
INDEX 01 00:00:00
FILE “12 – Substitute.flac” FLAC
TRACK 12 AUDIO
INDEX 01 00:00:00
FILE “13 – Anarchy in the UK.flac” FLAC
TRACK 13 AUDIO
INDEX 01 00:00:00
FILE “14 – Did You No Wrong.flac” FLAC
TRACK 14 AUDIO
INDEX 01 00:00:00

Leave a Reply

Your email address will not be published. Required fields are marked *

Enter the text from the image below
 

This site uses Akismet to reduce spam. Learn how your comment data is processed.