The Selecter / The Specials – BBC Radio 1 Live In Concert




Artist: The Selecter / The Specials
Year: 1979/1994
Genre: Ska
Notes: Discogs
Add. Notes:
Cover incl.: Yes
Encoder: FLAC
Bitrate: ~1000 kBit/s (44.1 kHz/16 Bit/s)
Log & Cue incl.: Yes
Size: 392,54 MB
Password: “slam” (without ” “)


All Downloads/Hosters are compatible

Download 1
Turbobit.net
Rapidgator.net
KatFile.com
UploadRar.com
Download 2
Turbobit.net
Rapidgator.net
KatFile.com
UploadRar.com

Tracklist:

1. The Selecter - Murder - 3:05
2. The Selecter - Out On The Streets Again - 4:46
3. The Selecter - The James Bond Theme - 2:12
4. The Selecter - Carry Go Bring Come - 3:18
5. The Selecter - Street Feeling - 3:25
6. The Selecter - Everyday Things Are Getting Worse - 
3:07
7. The Selecter - They Make Me Mad - 2:28
8. The Selecter - Too Much Pressure - 3:26

9. The Specials - Dawning Of A New Era - 2:26
10. The Specials - Do The Dog - 1:52
11. The Specials - Rat Race - 3:09
12. The Specials - Blank Expression - 1:55
13. The Specials - Rude Boys Out Of Jail - 2:45
14. The Specials - Concrete Jungle - 3:08
15. The Specials - Too Much Too Young - 2:14
16. The Specials - Nite Klub - 3:04
17. The Specials - Gangsters - 4:38
18.1. The Specials - Longshot Kicked De Bucket - 5:22
18.2. The Specials - Skinhead Moonstomp 

EAC-Log, CUE-Sheed & NFO:

Click to open spoiler
EAC extraction logfile from 23. April 2008, 13:32 for CD
The Selecter and The Specials / Live in Concert Selecter and Specials

Used drive : OPTIARC DVD RW AD-7170A Adapter: 0 ID: 0
Read mode : Secure with NO C2, accurate stream, disable cache
Read offset correction : 48
Overread into Lead-In and Lead-Out : No

Used output format : C:\Program Files\Exact Audio Copy\flac.exe (User Defined Encoder)
192 kBit/s
Additional command line options : -8 -A tukey(0.25) -A gauss(0.1875) -b 4096 -V -T “artist=%a” -T “title=%t” -T “album=%g” -T “date=%y” -T “tracknumber=%n” -T “genre=%m” %s –sector-align

Other options :
Fill up missing offset samples with silence : Yes
Delete leading and trailing silent blocks : No
Native Win32 interface for Win NT & 2000

Track 1
Filename \\.host\Shared Folders\Seeds\Live in Concert Selecter and Specials\01. The Selecter and The Specials – The Selecter , Murder.wav

Pre-gap length 0:00:02.33

Peak level 100.0 %
Track quality 99.8 %
Test CRC 8CFD0C43
Copy CRC 8CFD0C43
Copy OK

Track 2
Filename \\.host\Shared Folders\Seeds\Live in Concert Selecter and Specials\02. The Selecter and The Specials – The Selecter , On The Streets Again.wav

Suspicious position 0:02:26 – 0:02:28
Suspicious position 0:02:31
Suspicious position 0:02:33
Suspicious position 0:02:35 – 0:02:36

Peak level 100.0 %
Track quality 97.7 %
Test CRC 77CD97F8
Copy CRC 430F17F1
Copy finished

Track 3
Filename \\.host\Shared Folders\Seeds\Live in Concert Selecter and Specials\03. The Selecter and The Specials – The Selecter , James Bond.wav

Peak level 100.0 %
Track quality 99.7 %
Test CRC DF6D20A0
Copy CRC DF6D20A0
Copy OK

Track 4
Filename \\.host\Shared Folders\Seeds\Live in Concert Selecter and Specials\04. The Selecter and The Specials – The Selecter , Carry Go Bring Come.wav

Peak level 100.0 %
Track quality 100.0 %
Test CRC B0B2AE89
Copy CRC B0B2AE89
Copy OK

Track 5
Filename \\.host\Shared Folders\Seeds\Live in Concert Selecter and Specials\05. The Selecter and The Specials – The Selecter , Street Feeling.wav

Peak level 100.0 %
Track quality 100.0 %
Test CRC 1FEB23DF
Copy CRC 1FEB23DF
Copy OK

Track 6
Filename \\.host\Shared Folders\Seeds\Live in Concert Selecter and Specials\06. The Selecter and The Specials – The Selecter , Everyday Things Are Getting Worse.wav

Peak level 100.0 %
Track quality 100.0 %
Test CRC C1E1BF7F
Copy CRC C1E1BF7F
Copy OK

Track 7
Filename \\.host\Shared Folders\Seeds\Live in Concert Selecter and Specials\07. The Selecter and The Specials – The Selecter , They Make Me Mad.wav

Peak level 100.0 %
Track quality 100.0 %
Test CRC BCD57612
Copy CRC BCD57612
Copy OK

Track 8
Filename \\.host\Shared Folders\Seeds\Live in Concert Selecter and Specials\08. The Selecter and The Specials – The Selecter , Too Much Pressure.wav

Peak level 100.0 %
Track quality 99.9 %
Test CRC D0B3BB84
Copy CRC D0B3BB84
Copy OK

Track 9
Filename \\.host\Shared Folders\Seeds\Live in Concert Selecter and Specials\09. The Selecter and The Specials – The Specials , Dawning Of A New Era.wav

Pre-gap length 0:00:01.33

Peak level 100.0 %
Track quality 99.9 %
Test CRC 71357FD7
Copy CRC 71357FD7
Copy OK

Track 10
Filename \\.host\Shared Folders\Seeds\Live in Concert Selecter and Specials\10. The Selecter and The Specials – The Specials , Do The Dog.wav

Peak level 100.0 %
Track quality 100.0 %
Test CRC A972B3ED
Copy CRC A972B3ED
Copy OK

Track 11
Filename \\.host\Shared Folders\Seeds\Live in Concert Selecter and Specials\11. The Selecter and The Specials – The Specials , Rat Race.wav

Peak level 100.0 %
Track quality 100.0 %
Test CRC E12F5ED2
Copy CRC E12F5ED2
Copy OK

Track 12
Filename \\.host\Shared Folders\Seeds\Live in Concert Selecter and Specials\12. The Selecter and The Specials – The Specials , Blank Expression.wav

Peak level 100.0 %
Track quality 100.0 %
Test CRC F526AD2E
Copy CRC F526AD2E
Copy OK

Track 13
Filename \\.host\Shared Folders\Seeds\Live in Concert Selecter and Specials\13. The Selecter and The Specials – The Specials , Rude Boys Out Of Jail.wav

Peak level 100.0 %
Track quality 100.0 %
Test CRC F82F6E20
Copy CRC F82F6E20
Copy OK

Track 14
Filename \\.host\Shared Folders\Seeds\Live in Concert Selecter and Specials\14. The Selecter and The Specials – The Specials , Concrete Jungle.wav

Peak level 100.0 %
Track quality 99.9 %
Test CRC 52A81EA5
Copy CRC 52A81EA5
Copy OK

Track 15
Filename \\.host\Shared Folders\Seeds\Live in Concert Selecter and Specials\15. The Selecter and The Specials – The Specials , Too Much Too Young.wav

Peak level 100.0 %
Track quality 100.0 %
Test CRC FEC5B669
Copy CRC FEC5B669
Copy OK

Track 16
Filename \\.host\Shared Folders\Seeds\Live in Concert Selecter and Specials\16. The Selecter and The Specials – The Specials , Nite Klub.wav

Peak level 99.4 %
Track quality 100.0 %
Test CRC F98E91F5
Copy CRC F98E91F5
Copy OK

Track 17
Filename \\.host\Shared Folders\Seeds\Live in Concert Selecter and Specials\17. The Selecter and The Specials – The Specials , Gangsters.wav

Peak level 95.6 %
Track quality 100.0 %
Test CRC 1E27BD24
Copy CRC 1E27BD24
Copy OK

Track 18
Filename \\.host\Shared Folders\Seeds\Live in Concert Selecter and Specials\18. The Selecter and The Specials – The Specials , Longshot Kicked De Bucket.wav

Peak level 97.8 %
Track quality 100.0 %
Test CRC 8DA17296
Copy CRC 8DA17296
Copy OK

There were errors

End of status report

————————————————————

EAC extraction logfile from 23. April 2008, 13:32 for CD
The Selecter and The Specials / Live in Concert Selecter and Specials

Used drive : OPTIARC DVD RW AD-7170A Adapter: 0 ID: 0
Read mode : Secure with NO C2, accurate stream, disable cache
Read offset correction : 48
Overread into Lead-In and Lead-Out : No

Used output format : C:\Program Files\Exact Audio Copy\flac.exe (User Defined Encoder)
192 kBit/s
Additional command line options : -8 -A tukey(0.25) -A gauss(0.1875) -b 4096 -V -T “artist=%a” -T “title=%t” -T “album=%g” -T “date=%y” -T “tracknumber=%n” -T “genre=%m” %s –sector-align

Other options :
Fill up missing offset samples with silence : Yes
Delete leading and trailing silent blocks : No
Native Win32 interface for Win NT & 2000

Track 1
Filename \\.host\Shared Folders\Seeds\Live in Concert Selecter and Specials\01. The Selecter and The Specials – The Selecter , Murder.wav

Pre-gap length 0:00:02.33

Peak level 100.0 %
Track quality 99.8 %
Test CRC 8CFD0C43
Copy CRC 8CFD0C43
Copy OK

Track 2
Filename \\.host\Shared Folders\Seeds\Live in Concert Selecter and Specials\02. The Selecter and The Specials – The Selecter , On The Streets Again.wav

Suspicious position 0:02:26 – 0:02:28
Suspicious position 0:02:31
Suspicious position 0:02:33
Suspicious position 0:02:35 – 0:02:36

Peak level 100.0 %
Track quality 97.7 %
Test CRC 77CD97F8
Copy CRC 430F17F1
Copy finished

Track 3
Filename \\.host\Shared Folders\Seeds\Live in Concert Selecter and Specials\03. The Selecter and The Specials – The Selecter , James Bond.wav

Peak level 100.0 %
Track quality 99.7 %
Test CRC DF6D20A0
Copy CRC DF6D20A0
Copy OK

Track 4
Filename \\.host\Shared Folders\Seeds\Live in Concert Selecter and Specials\04. The Selecter and The Specials – The Selecter , Carry Go Bring Come.wav

Peak level 100.0 %
Track quality 100.0 %
Test CRC B0B2AE89
Copy CRC B0B2AE89
Copy OK

Track 5
Filename \\.host\Shared Folders\Seeds\Live in Concert Selecter and Specials\05. The Selecter and The Specials – The Selecter , Street Feeling.wav

Peak level 100.0 %
Track quality 100.0 %
Test CRC 1FEB23DF
Copy CRC 1FEB23DF
Copy OK

Track 6
Filename \\.host\Shared Folders\Seeds\Live in Concert Selecter and Specials\06. The Selecter and The Specials – The Selecter , Everyday Things Are Getting Worse.wav

Peak level 100.0 %
Track quality 100.0 %
Test CRC C1E1BF7F
Copy CRC C1E1BF7F
Copy OK

Track 7
Filename \\.host\Shared Folders\Seeds\Live in Concert Selecter and Specials\07. The Selecter and The Specials – The Selecter , They Make Me Mad.wav

Peak level 100.0 %
Track quality 100.0 %
Test CRC BCD57612
Copy CRC BCD57612
Copy OK

Track 8
Filename \\.host\Shared Folders\Seeds\Live in Concert Selecter and Specials\08. The Selecter and The Specials – The Selecter , Too Much Pressure.wav

Peak level 100.0 %
Track quality 99.9 %
Test CRC D0B3BB84
Copy CRC D0B3BB84
Copy OK

Track 9
Filename \\.host\Shared Folders\Seeds\Live in Concert Selecter and Specials\09. The Selecter and The Specials – The Specials , Dawning Of A New Era.wav

Pre-gap length 0:00:01.33

Peak level 100.0 %
Track quality 99.9 %
Test CRC 71357FD7
Copy CRC 71357FD7
Copy OK

Track 10
Filename \\.host\Shared Folders\Seeds\Live in Concert Selecter and Specials\10. The Selecter and The Specials – The Specials , Do The Dog.wav

Peak level 100.0 %
Track quality 100.0 %
Test CRC A972B3ED
Copy CRC A972B3ED
Copy OK

Track 11
Filename \\.host\Shared Folders\Seeds\Live in Concert Selecter and Specials\11. The Selecter and The Specials – The Specials , Rat Race.wav

Peak level 100.0 %
Track quality 100.0 %
Test CRC E12F5ED2
Copy CRC E12F5ED2
Copy OK

Track 12
Filename \\.host\Shared Folders\Seeds\Live in Concert Selecter and Specials\12. The Selecter and The Specials – The Specials , Blank Expression.wav

Peak level 100.0 %
Track quality 100.0 %
Test CRC F526AD2E
Copy CRC F526AD2E
Copy OK

Track 13
Filename \\.host\Shared Folders\Seeds\Live in Concert Selecter and Specials\13. The Selecter and The Specials – The Specials , Rude Boys Out Of Jail.wav

Peak level 100.0 %
Track quality 100.0 %
Test CRC F82F6E20
Copy CRC F82F6E20
Copy OK

Track 14
Filename \\.host\Shared Folders\Seeds\Live in Concert Selecter and Specials\14. The Selecter and The Specials – The Specials , Concrete Jungle.wav

Peak level 100.0 %
Track quality 99.9 %
Test CRC 52A81EA5
Copy CRC 52A81EA5
Copy OK

Track 15
Filename \\.host\Shared Folders\Seeds\Live in Concert Selecter and Specials\15. The Selecter and The Specials – The Specials , Too Much Too Young.wav

Peak level 100.0 %
Track quality 100.0 %
Test CRC FEC5B669
Copy CRC FEC5B669
Copy OK

Track 16
Filename \\.host\Shared Folders\Seeds\Live in Concert Selecter and Specials\16. The Selecter and The Specials – The Specials , Nite Klub.wav

Peak level 99.4 %
Track quality 100.0 %
Test CRC F98E91F5
Copy CRC F98E91F5
Copy OK

Track 17
Filename \\.host\Shared Folders\Seeds\Live in Concert Selecter and Specials\17. The Selecter and The Specials – The Specials , Gangsters.wav

Peak level 95.6 %
Track quality 100.0 %
Test CRC 1E27BD24
Copy CRC 1E27BD24
Copy OK

Track 18
Filename \\.host\Shared Folders\Seeds\Live in Concert Selecter and Specials\18. The Selecter and The Specials – The Specials , Longshot Kicked De Bucket.wav

Peak level 97.8 %
Track quality 100.0 %
Test CRC 8DA17296
Copy CRC 8DA17296
Copy OK

There were errors

End of status report

REM GENRE Ska
REM DATE 1979
REM DISCID DF0D3B12
REM COMMENT “ExactAudioCopy v0.95b3”
PERFORMER “The Selecter and The Specials”
TITLE “Live in Concert Selecter and Specials”
FILE “01. The Selecter and The Specials – The Selecter , Murder.wav” WAVE
TRACK 01 AUDIO
TITLE “The Selecter / Murder”
PERFORMER “The Selecter and The Specials”
PREGAP 00:00:33
INDEX 01 00:00:00
FILE “02. The Selecter and The Specials – The Selecter , On The Streets Again.wav” WAVE
TRACK 02 AUDIO
TITLE “The Selecter / On The Streets Again”
PERFORMER “The Selecter and The Specials”
INDEX 01 00:00:00
FILE “03. The Selecter and The Specials – The Selecter , James Bond.wav” WAVE
TRACK 03 AUDIO
TITLE “The Selecter / James Bond”
PERFORMER “The Selecter and The Specials”
INDEX 01 00:00:00
FILE “04. The Selecter and The Specials – The Selecter , Carry Go Bring Come.wav” WAVE
TRACK 04 AUDIO
TITLE “The Selecter / Carry Go Bring Come”
PERFORMER “The Selecter and The Specials”
INDEX 01 00:00:00
FILE “05. The Selecter and The Specials – The Selecter , Street Feeling.wav” WAVE
TRACK 05 AUDIO
TITLE “The Selecter / Street Feeling”
PERFORMER “The Selecter and The Specials”
INDEX 01 00:00:00
FILE “06. The Selecter and The Specials – The Selecter , Everyday Things Are Getting Worse.wav” WAVE
TRACK 06 AUDIO
TITLE “The Selecter / Everyday Things Are Getting Worse”
PERFORMER “The Selecter and The Specials”
INDEX 01 00:00:00
FILE “07. The Selecter and The Specials – The Selecter , They Make Me Mad.wav” WAVE
TRACK 07 AUDIO
TITLE “The Selecter / They Make Me Mad”
PERFORMER “The Selecter and The Specials”
INDEX 01 00:00:00
FILE “08. The Selecter and The Specials – The Selecter , Too Much Pressure.wav” WAVE
TRACK 08 AUDIO
TITLE “The Selecter / Too Much Pressure”
PERFORMER “The Selecter and The Specials”
INDEX 01 00:00:00
TRACK 09 AUDIO
TITLE “The Specials / Dawning Of A New Era”
PERFORMER “The Selecter and The Specials”
INDEX 00 03:25:07
FILE “09. The Selecter and The Specials – The Specials , Dawning Of A New Era.wav” WAVE
INDEX 01 00:00:00
FILE “10. The Selecter and The Specials – The Specials , Do The Dog.wav” WAVE
TRACK 10 AUDIO
TITLE “The Specials / Do The Dog”
PERFORMER “The Selecter and The Specials”
INDEX 01 00:00:00
FILE “11. The Selecter and The Specials – The Specials , Rat Race.wav” WAVE
TRACK 11 AUDIO
TITLE “The Specials / Rat Race”
PERFORMER “The Selecter and The Specials”
INDEX 01 00:00:00
FILE “12. The Selecter and The Specials – The Specials , Blank Expression.wav” WAVE
TRACK 12 AUDIO
TITLE “The Specials / Blank Expression”
PERFORMER “The Selecter and The Specials”
INDEX 01 00:00:00
FILE “13. The Selecter and The Specials – The Specials , Rude Boys Out Of Jail.wav” WAVE
TRACK 13 AUDIO
TITLE “The Specials / Rude Boys Out Of Jail”
PERFORMER “The Selecter and The Specials”
INDEX 01 00:00:00
FILE “14. The Selecter and The Specials – The Specials , Concrete Jungle.wav” WAVE
TRACK 14 AUDIO
TITLE “The Specials / Concrete Jungle”
PERFORMER “The Selecter and The Specials”
INDEX 01 00:00:00
FILE “15. The Selecter and The Specials – The Specials , Too Much Too Young.wav” WAVE
TRACK 15 AUDIO
TITLE “The Specials / Too Much Too Young”
PERFORMER “The Selecter and The Specials”
INDEX 01 00:00:00
FILE “16. The Selecter and The Specials – The Specials , Nite Klub.wav” WAVE
TRACK 16 AUDIO
TITLE “The Specials / Nite Klub”
PERFORMER “The Selecter and The Specials”
INDEX 01 00:00:00
FILE “17. The Selecter and The Specials – The Specials , Gangsters.wav” WAVE
TRACK 17 AUDIO
TITLE “The Specials / Gangsters”
PERFORMER “The Selecter and The Specials”
INDEX 01 00:00:00
FILE “18. The Selecter and The Specials – The Specials , Longshot Kicked De Bucket.wav” WAVE
TRACK 18 AUDIO
TITLE “The Specials / Longshot Kicked De Bucket”
PERFORMER “The Selecter and The Specials”
INDEX 01 00:00:00


Leave a Reply

Your email address will not be published. Required fields are marked *

Enter the text from the image below
 

This site uses Akismet to reduce spam. Learn how your comment data is processed.