The Rolling Stones – Voodoo Lounge




[Total: 0    Average: 0/5]

Artist: The Rolling Stones
Year: 1994
Genre: Rock
Notes: Discogs
Add. Notes:
Cover incl.: Yes
Encoder: FLAC
Bitrate: ~900 kBit/s (44.1 kHz/16 Bit/s)
Log & Cue incl.: Yes
Size: 486,13 MB
Password: “slam” (without ” “)


All Downloads/Hosters are compatible

Download 1
Share-online.biz
KatFile.com
Rapidgator.net
Mexa.sh
Download 2
Share-online.biz
KatFile.com
Rapidgator.net
Mexa.sh

Tracklist:

1 - Love Is Strong - 3:48
2 - You Got Me Rocking - 3:35
3 - Sparks Will Fly - 3:15
4 - The Worst - 2:24
5 - New Faces - 2:50
6 - Moon Is Up - 3:41
7 - Out Of Tears - 5:27
8 - I Go Wild - 4:23
9 - Brand New Car - 4:13
10 - Sweethearts Together - 4:46
11 - Suck On The Jugular - 4:26
12 - Blinded By Rainbows - 4:32
13 - Baby Break It Down - 4:07
14 - Thru And Thru - 6:00
15 - Mean Disposition - 4:09

EAC-Log, CUE-Sheed & NFO:

Click to open spoiler
Exact Audio Copy V1.0 beta 3 from 29. August 2011

EAC extraction logfile from 18. March 2013, 18:31

The Rolling Stones / Voodoo Lounge (Virgin CDV 2750)

Used drive : PLEXTOR DVDR PX-891SA Adapter: 1 ID: 0

Read mode : Secure
Utilize accurate stream : Yes
Defeat audio cache : Yes
Make use of C2 pointers : No

Read offset correction : 6
Overread into Lead-In and Lead-Out : No
Fill up missing offset samples with silence : Yes
Delete leading and trailing silent blocks : No
Null samples used in CRC calculations : Yes
Used interface : Native Win32 interface for Win NT & 2000

Used output format : User Defined Encoder
Selected bitrate : 1024 kBit/s
Quality : High
Add ID3 tag : No
Command line compressor : C:\Program Files\Exact Audio Copy\Flac\flac.exe
Additional command line options : -V -8 -T “Genre=%genre%” -T “Artist=%artist%” -T “Title=%title%” -T “Album=%albumtitle%” -T “Date=%year%” -T “Tracknumber=%tracknr%” -T “Comment=%comment%” %source%

TOC of the extracted CD

Track | Start | Length | Start sector | End sector
———————————————————
1 | 0:00.00 | 3:50.57 | 0 | 17306
2 | 3:50.57 | 3:35.63 | 17307 | 33494
3 | 7:26.45 | 3:16.27 | 33495 | 48221
4 | 10:42.72 | 2:24.38 | 48222 | 59059
5 | 13:07.35 | 2:52.10 | 59060 | 71969
6 | 15:59.45 | 3:42.02 | 71970 | 88621
7 | 19:41.47 | 5:27.30 | 88622 | 113176
8 | 25:09.02 | 4:23.63 | 113177 | 132964
9 | 29:32.65 | 4:15.72 | 132965 | 152161
10 | 33:48.62 | 4:45.33 | 152162 | 173569
11 | 38:34.20 | 4:28.07 | 173570 | 193676
12 | 43:02.27 | 4:33.68 | 193677 | 214219
13 | 47:36.20 | 4:09.25 | 214220 | 232919
14 | 51:45.45 | 6:15.00 | 232920 | 261044
15 | 58:00.45 | 4:07.67 | 261045 | 279636

Range status and errors

Selected range

Filename H:\dafnaplus\1994 Voodoo Lounge [Virgin CDV 2750]\The Rolling Stones – Voodoo Lounge (Virgin CDV 2750).wav

Peak level 100.0 %
Extraction speed 3.5 X
Range quality 100.0 %
Test CRC 8833EE86
Copy CRC 8833EE86
Copy OK

No errors occurred

AccurateRip summary

Track 1 accurately ripped (confidence 9) [908E0D01] (AR v2)
Track 2 accurately ripped (confidence 12) [A6FF8245] (AR v2)
Track 3 accurately ripped (confidence 11) [76781A35] (AR v2)
Track 4 accurately ripped (confidence 12) [51CC90BB] (AR v2)
Track 5 accurately ripped (confidence 11) [E45401DF] (AR v2)
Track 6 accurately ripped (confidence 10) [C1D55DB4] (AR v2)
Track 7 accurately ripped (confidence 11) [CA471A9C] (AR v2)
Track 8 accurately ripped (confidence 12) [EDE5A7B5] (AR v2)
Track 9 accurately ripped (confidence 10) [113EEC10] (AR v2)
Track 10 accurately ripped (confidence 9) [EA8EB10B] (AR v2)
Track 11 accurately ripped (confidence 10) [6971C0A1] (AR v2)
Track 12 accurately ripped (confidence 10) [F62A398C] (AR v2)
Track 13 accurately ripped (confidence 10) [75DE3FB8] (AR v2)
Track 14 accurately ripped (confidence 10) [70B50B56] (AR v2)
Track 15 accurately ripped (confidence 9) [5482C7C0] (AR v2)

All tracks accurately ripped

End of status report

==== Log checksum 1AB417450763E8695D930952E4505728874FB4E0C3C8EB4B1B97296027C22787 ====

REM GENRE Rock
REM DATE 1994
REM DISCID CE0E900F
REM COMMENT “ExactAudioCopy v1.0b3”
PERFORMER “The Rolling Stones”
TITLE “Voodoo Lounge (Virgin CDV 2750)”
FILE “The Rolling Stones – Voodoo Lounge (Virgin CDV 2750).flac” WAVE
TRACK 01 AUDIO
TITLE “Love Is Strong”
PERFORMER “The Rolling Stones”
INDEX 01 00:00:00
TRACK 02 AUDIO
TITLE “You Got Me Rocking”
PERFORMER “The Rolling Stones”
INDEX 00 03:48:60
INDEX 01 03:50:57
TRACK 03 AUDIO
TITLE “Sparks Will Fly”
PERFORMER “The Rolling Stones”
INDEX 00 07:26:37
INDEX 01 07:26:45
TRACK 04 AUDIO
TITLE “The Worst”
PERFORMER “The Rolling Stones”
INDEX 00 10:41:45
INDEX 01 10:42:72
TRACK 05 AUDIO
TITLE “New Faces”
PERFORMER “The Rolling Stones”
INDEX 01 13:07:35
TRACK 06 AUDIO
TITLE “Moon Is Up”
PERFORMER “The Rolling Stones”
INDEX 00 15:59:02
INDEX 01 15:59:45
TRACK 07 AUDIO
TITLE “Out Of Tears”
PERFORMER “The Rolling Stones”
INDEX 00 19:40:05
INDEX 01 19:41:47
TRACK 08 AUDIO
TITLE “I Go Wild”
PERFORMER “The Rolling Stones”
INDEX 01 25:09:02
TRACK 09 AUDIO
TITLE “Brand New Car”
PERFORMER “The Rolling Stones”
INDEX 01 29:32:65
TRACK 10 AUDIO
TITLE “Sweethearts Together”
PERFORMER “The Rolling Stones”
INDEX 00 33:46:37
INDEX 01 33:48:62
TRACK 11 AUDIO
TITLE “Suck On The Jugular”
PERFORMER “The Rolling Stones”
INDEX 01 38:34:20
TRACK 12 AUDIO
TITLE “Blinded By Rainbows”
PERFORMER “The Rolling Stones”
INDEX 00 43:00:10
INDEX 01 43:02:27
TRACK 13 AUDIO
TITLE “Baby Break It Down”
PERFORMER “The Rolling Stones”
INDEX 00 47:35:37
INDEX 01 47:36:20
TRACK 14 AUDIO
TITLE “Thru And Thru”
PERFORMER “The Rolling Stones”
INDEX 00 51:43:37
INDEX 01 51:45:45
TRACK 15 AUDIO
TITLE “Mean Disposition”
PERFORMER “The Rolling Stones”
INDEX 00 57:45:47
INDEX 01 58:00:45


Spread the Download

Leave a Reply

Your email address will not be published. Required fields are marked *

Enter the text from the image below
 

This site uses Akismet to reduce spam. Learn how your comment data is processed.