The Rolling Stones – Totally Stripped – Live At L’olympia Paris 1995.07.03 (Limited Japanese Edition)




Artist: The Rolling Stones
Year: 2017
Genre: Rock
Notes: Discogs
Add. Notes: Limited Japanese Edition
Cover incl.: Yes
Encoder: FLAC
Bitrate: ~1000 kBit/s (44.1 kHz/16 Bit/s)
Log & Cue incl.: Yes
Size: 939,53 MB
Password: “slam” (without ” “)


All Downloads/Hosters are compatible

Download 1
Turbobit.net
KatFile.com
Rapidgator.net
NitroFlare.com
Download 2
Turbobit.net
KatFile.com
Rapidgator.net
NitroFlare.com

Tracklist:

CD 1:
1. Honky Tonk Women 	
2. Tumbling Dice 	
3. You Got Me Rockin 	
4. All Down The Line 	
5. Shattered 	
6. Beast Of Burden 	
7. Let It Bleed 	
8. Angie 	
9. Wild Horses 	
10. Down In The Bottom 	
11. Shine A Light 	
12. Like A Rolling Stone 	
13. I Go Wild 	

CD 2:
1. Miss You 	
2. Connection 	
3. Slipping Away 	
4. Midnight Rambler 	
5. Rip This Joint 	
6. Start Me Up 	
7. It S Only Rock 'N' Roll 	
8. Brown Sugar 	
9. Jumpin Jack Flash

EAC-Log, CUE-Sheed & NFO:

Click to open spoiler
Exact Audio Copy V1.0 beta 3 from 29. August 2011

Отчёт EAC об извлечении, выполненном 16. июня 2017, 22:43

The Rolling Stones / Totally Stripped Paris (Live At L’Olympia Paris 1995.07.03) CD 1

Дисковод: ATAPI iHES108 2 Adapter: 3 ID: 1

Режим чтения : Достоверность
Использование точного потока : Да
Отключение кэша аудио : Да
Использование указателей C2 : Нет

Коррекция смещения при чтении : 6
Способность читать области Lead-in и Lead-out : Нет
Заполнение пропущенных сэмплов тишиной : Да
Удаление блоков с тишиной в начале и конце : Нет
При вычислениях CRC использовались нулевые сэмплы : Да
Интерфейс : Встроенный Win32-интерфейс для Win NT/2000

Выходной формат : Пользовательский кодировщик
Выбранный битрейт : 1024 kBit/s
Качество : Высокий
Добавление ID3-тега : Нет
Утилита сжатия : C:\Program Files\Exact Audio Copy\Flac\flac.exe
Дополнительные параметры : -V -8 -T “Date=%year%” -T “Genre=%genre%” %source%

TOC извлечённого CD

Трек | Старт | Длительность | Начальный сектор | Конечный сектор
———————————————————————
1 | 0:00.00 | 6:10.59 | 0 | 27808
2 | 6:10.59 | 4:31.57 | 27809 | 48190
3 | 10:42.41 | 3:58.52 | 48191 | 66092
4 | 14:41.18 | 5:18.60 | 66093 | 90002
5 | 20:00.03 | 4:51.41 | 90003 | 111868
6 | 24:51.44 | 5:54.61 | 111869 | 138479
7 | 30:46.30 | 5:32.12 | 138480 | 163391
8 | 36:18.42 | 3:53.47 | 163392 | 180913
9 | 40:12.14 | 5:58.02 | 180914 | 207765
10 | 46:10.16 | 3:59.13 | 207766 | 225703
11 | 50:09.29 | 5:28.05 | 225704 | 250308
12 | 55:37.34 | 6:20.22 | 250309 | 278830
13 | 61:57.56 | 6:51.46 | 278831 | 309701

Характеристики диапазона извлечения и сообщения об ошибках

Выбранный диапазон

Имя файла D:\EAC-FOLDER\The Rolling Stones – Totally Stripped Paris (Live At L’Olympia Paris 1995.07.03)\CD1\The Rolling Stones – Totally Stripped Paris (Live At L’Olympia Paris 1995.07.03) CD 1.wav

Пиковый уровень 99.4 %
Скорость извлечения 4.7 X
Качество диапазона 100.0 %
CRC теста 04B3E1B7
CRC копии 04B3E1B7
Копирование… OK

Ошибок не произошло

AccurateRip: сводка

Трек 1 отсутствует в базе данных
Трек 2 отсутствует в базе данных
Трек 3 отсутствует в базе данных
Трек 4 отсутствует в базе данных
Трек 5 отсутствует в базе данных
Трек 6 отсутствует в базе данных
Трек 7 отсутствует в базе данных
Трек 8 отсутствует в базе данных
Трек 9 отсутствует в базе данных
Трек 10 отсутствует в базе данных
Трек 11 отсутствует в базе данных
Трек 12 отсутствует в базе данных
Трек 13 отсутствует в базе данных

Ни одного трека нет в базе AccurateRip

Конец отчёта

==== Контрольная сумма отчёта 8706190ECD7F03D0E2D6A577D892C12785B77F1C6C7B75CA0C095D9362559875 ====

Exact Audio Copy V1.0 beta 3 from 29. August 2011

Отчёт EAC об извлечении, выполненном 16. июня 2017, 23:45

The Rolling Stones / Totally Stripped Paris (Live At L’Olympia Paris 1995.07.03) CD 2

Дисковод: ATAPI iHES108 2 Adapter: 3 ID: 1

Режим чтения : Достоверность
Использование точного потока : Да
Отключение кэша аудио : Да
Использование указателей C2 : Нет

Коррекция смещения при чтении : 6
Способность читать области Lead-in и Lead-out : Нет
Заполнение пропущенных сэмплов тишиной : Да
Удаление блоков с тишиной в начале и конце : Нет
При вычислениях CRC использовались нулевые сэмплы : Да
Интерфейс : Встроенный Win32-интерфейс для Win NT/2000

Выходной формат : Пользовательский кодировщик
Выбранный битрейт : 1024 kBit/s
Качество : Высокий
Добавление ID3-тега : Нет
Утилита сжатия : C:\Program Files\Exact Audio Copy\Flac\flac.exe
Дополнительные параметры : -V -8 -T “Date=%year%” -T “Genre=%genre%” %source%

TOC извлечённого CD

Трек | Старт | Длительность | Начальный сектор | Конечный сектор
———————————————————————
1 | 0:00.00 | 15:07.28 | 0 | 68052
2 | 15:07.28 | 4:01.69 | 68053 | 86196
3 | 19:09.22 | 6:02.09 | 86197 | 113355
4 | 25:11.31 | 10:12.03 | 113356 | 159258
5 | 35:23.34 | 2:29.48 | 159259 | 170481
6 | 37:53.07 | 4:25.48 | 170482 | 190404
7 | 42:18.55 | 5:04.62 | 190405 | 213266
8 | 47:23.42 | 7:02.01 | 213267 | 244917
9 | 54:25.43 | 7:35.51 | 244918 | 279093

Характеристики диапазона извлечения и сообщения об ошибках

Выбранный диапазон

Имя файла D:\EAC-FOLDER\The Rolling Stones – Totally Stripped Paris (Live At L’Olympia Paris 1995.07.03)\CD2\The Rolling Stones – Totally Stripped Paris (Live At L’Olympia Paris 1995.07.03) CD 2.wav

Пиковый уровень 99.4 %
Скорость извлечения 4.7 X
Качество диапазона 100.0 %
CRC теста 51AB006E
CRC копии 51AB006E
Копирование… OK

Ошибок не произошло

AccurateRip: сводка

Трек 1 отсутствует в базе данных
Трек 2 отсутствует в базе данных
Трек 3 отсутствует в базе данных
Трек 4 отсутствует в базе данных
Трек 5 отсутствует в базе данных
Трек 6 отсутствует в базе данных
Трек 7 отсутствует в базе данных
Трек 8 отсутствует в базе данных
Трек 9 отсутствует в базе данных

Ни одного трека нет в базе AccurateRip

Конец отчёта

==== Контрольная сумма отчёта FC07D12B1C44CA661184ABC9E28836E1EFC289745CD33FB00099279DC8BE18AB ====

REM GENRE Rock
REM DATE 2017
REM DISCID AD10210D
REM COMMENT “ExactAudioCopy v1.0b3”
CATALOG 5034504166424
PERFORMER “The Rolling Stones”
TITLE “Totally Stripped Paris (Live At L’Olympia Paris 1995.07.03) CD 1”
FILE “The Rolling Stones – Totally Stripped Paris (Live At L’Olympia Paris 1995.07.03) CD 1.flac” WAVE
TRACK 01 AUDIO
TITLE “Honky Tonk Women”
PERFORMER “The Rolling Stones”
ISRC TbCBR1600565
INDEX 01 00:00:00
TRACK 02 AUDIO
TITLE “Tumbling Dice”
PERFORMER “The Rolling Stones”
ISRC TbCBR1600566
INDEX 01 06:10:59
TRACK 03 AUDIO
TITLE “You Got Me Rockin”
PERFORMER “The Rolling Stones”
ISRC TbCBR1600567
INDEX 01 10:42:41
TRACK 04 AUDIO
TITLE “All Down The Line”
PERFORMER “The Rolling Stones”
ISRC TbCBR1600568
INDEX 01 14:41:18
TRACK 05 AUDIO
TITLE “Shattered”
PERFORMER “The Rolling Stones”
ISRC TbCBR1600569
INDEX 01 20:00:03
TRACK 06 AUDIO
TITLE “Beast Of Burden”
PERFORMER “The Rolling Stones”
ISRC TbCBR1600570
INDEX 01 24:51:44
TRACK 07 AUDIO
TITLE “Let It Bleed”
PERFORMER “The Rolling Stones”
ISRC TbCBR1600571
INDEX 01 30:46:30
TRACK 08 AUDIO
TITLE “Angie”
PERFORMER “The Rolling Stones”
ISRC TbCBR1600572
INDEX 01 36:18:42
TRACK 09 AUDIO
TITLE “Wild Horses”
PERFORMER “The Rolling Stones”
ISRC TbCBR1600573
INDEX 01 40:12:14
TRACK 10 AUDIO
TITLE “Down In The Bottom”
PERFORMER “The Rolling Stones”
ISRC TbCBR1600574
INDEX 01 46:10:16
TRACK 11 AUDIO
TITLE “Shine A Light”
PERFORMER “The Rolling Stones”
ISRC TbCBR1600575
INDEX 01 50:09:29
TRACK 12 AUDIO
TITLE “Like A Rolling Stone”
PERFORMER “The Rolling Stones”
ISRC TbCBR1600575
INDEX 01 55:37:34
TRACK 13 AUDIO
TITLE “I Go Wild”
PERFORMER “The Rolling Stones”
ISRC TbCBR1600577
INDEX 01 61:57:56

REM GENRE Rock
REM DATE 2017
REM DISCID 700E8909
REM COMMENT “ExactAudioCopy v1.0b3”
CATALOG 5034504166424
PERFORMER “The Rolling Stones ”
TITLE “Totally Stripped Paris (Live At L’Olympia Paris 1995.07.03) CD 2”
FILE “The Rolling Stones – Totally Stripped Paris (Live At L’Olympia Paris 1995.07.03) CD 2.flac” WAVE
TRACK 01 AUDIO
TITLE “Miss You”
PERFORMER “The Rolling Stones ”
ISRC TbCBR1600578
INDEX 01 00:00:00
TRACK 02 AUDIO
TITLE “Connection”
PERFORMER “The Rolling Stones ”
ISRC TbCBR1600579
INDEX 01 15:07:28
TRACK 03 AUDIO
TITLE “Slipping Away”
PERFORMER “The Rolling Stones ”
ISRC TbCBR1600580
INDEX 01 19:09:22
TRACK 04 AUDIO
TITLE “Midnight Rambler”
PERFORMER “The Rolling Stones ”
ISRC TbCBR1600581
INDEX 01 25:11:31
TRACK 05 AUDIO
TITLE “Rip This Joint”
PERFORMER “The Rolling Stones ”
ISRC TbCBR1600582
INDEX 01 35:23:34
TRACK 06 AUDIO
TITLE “Start Me Up”
PERFORMER “The Rolling Stones ”
ISRC TbCBR1600583
INDEX 01 37:53:07
TRACK 07 AUDIO
TITLE “It’s Only Rock ‘N’ Roll”
PERFORMER “The Rolling Stones ”
ISRC TbCBR1600584
INDEX 01 42:18:55
TRACK 08 AUDIO
TITLE “Brown Sugar”
PERFORMER “The Rolling Stones ”
ISRC TbCBR1600585
INDEX 01 47:23:42
TRACK 09 AUDIO
TITLE “Jumpin Jack Flash”
PERFORMER “The Rolling Stones ”
ISRC TbCBR1600585
INDEX 01 54:25:43


Leave a Reply

Your email address will not be published. Required fields are marked *

This site uses Akismet to reduce spam. Learn how your comment data is processed.