The Rolling Stones – Through The Past, Darkly (Big Hits Vol. 2)




Artist: The Rolling Stones
Year: 1969/1989
Genre: Rock
Notes: Discogs
Add. Notes:
Cover incl.: Yes
Encoder: FLAC
Bitrate: ~800 kBit/s (44.1 kHz/16 Bit/s)
Log & Cue incl.: Yes
Size: 258,24 MB
Password: “slam” (without ” “)


All Downloads/Hosters are compatible

Download 1
Turbobit.net
KatFile.com
Rapidgator.net
Download 2
Turbobit.net
KatFile.com
Rapidgator.net

Tracklist:

1. Jumpin' Jack Flash 
2. Mother's Little Helper 
3. 2,000 Light Years From Home 
4. Let's Spend The Night Together 
5. You Better Move On 
6. We Love You 
7. Street Fighting Man 
8. She's A Rainbow 
9. Ruby Tuesday 
10. Dandelion 
11. Sittin' On A Fence 
12. Honky Tonk Women

EAC-Log, CUE-Sheed & NFO:

Click to open spoiler
Exact Audio Copy V1.0 beta 3 from 29. August 2011

EAC extraction logfile from 7. April 2014, 17:09

The Rolling Stones / Through The Past, Darkly (Big Hits Vol2) [P25L 25044]

Used drive : HL-DT-STDVD+-RW GH50N Adapter: 0 ID: 1

Read mode : Secure
Utilize accurate stream : Yes
Defeat audio cache : Yes
Make use of C2 pointers : No

Read offset correction : 667
Overread into Lead-In and Lead-Out : No
Fill up missing offset samples with silence : Yes
Delete leading and trailing silent blocks : No
Null samples used in CRC calculations : Yes
Used interface : Native Win32 interface for Win NT & 2000

Used output format : User Defined Encoder
Selected bitrate : 768 kBit/s
Quality : High
Add ID3 tag : No
Command line compressor : C:\Program Files (x86)\Exact Audio Copy\FLAC\FLAC.EXE
Additional command line options : -V -8 -T “Date=%year%” -T “Genre=%genre%” %source%

TOC of the extracted CD

Track | Start | Length | Start sector | End sector
———————————————————
1 | 0:00.37 | 3:45.35 | 37 | 16946
2 | 3:45.72 | 2:49.45 | 16947 | 29666
3 | 6:35.42 | 4:50.53 | 29667 | 51469
4 | 11:26.20 | 3:43.67 | 51470 | 68261
5 | 15:10.12 | 2:45.33 | 68262 | 80669
6 | 17:55.45 | 4:25.32 | 80670 | 100576
7 | 22:21.02 | 3:18.68 | 100577 | 115494
8 | 25:39.70 | 4:12.55 | 115495 | 134449
9 | 29:52.50 | 3:22.32 | 134450 | 149631
10 | 33:15.07 | 3:34.73 | 149632 | 165754
11 | 36:50.05 | 3:09.12 | 165755 | 179941
12 | 39:59.17 | 3:04.68 | 179942 | 193809

Range status and errors

Selected range

Filename C:\222\London\Japan\1969 – Big Hits Vol2 (UK)\The Rolling Stones – Through The Past, Darkly (Big Hits Vol2) [P25L 25044].wav

Peak level 97.2 %
Extraction speed 2.9 X
Range quality 100.0 %
Test CRC 36D9FC34
Copy CRC 36D9FC34
Copy OK

No errors occurred

AccurateRip summary

Track 1 accurately ripped (confidence 6) [9DEA37DD] (AR v2)
Track 2 accurately ripped (confidence 6) [46FF19DA] (AR v2)
Track 3 accurately ripped (confidence 5) [5738F3EB] (AR v2)
Track 4 accurately ripped (confidence 6) [3444B2CF] (AR v2)
Track 5 accurately ripped (confidence 6) [EAB8765C] (AR v2)
Track 6 accurately ripped (confidence 6) [ED1B9FAA] (AR v2)
Track 7 accurately ripped (confidence 6) [8A084DCE] (AR v2)
Track 8 accurately ripped (confidence 6) [4217F557] (AR v2)
Track 9 accurately ripped (confidence 6) [C00E87D3] (AR v2)
Track 10 accurately ripped (confidence 6) [B005B531] (AR v2)
Track 11 accurately ripped (confidence 6) [6EFBD96E] (AR v2)
Track 12 accurately ripped (confidence 6) [48C4AD2D] (AR v2)

All tracks accurately ripped

End of status report

==== Log checksum F4ED261D9F348591B1309544AFCAF60068415686C2808DECC51A74435CED1346 ====

REM GENRE Rock
REM DATE 1969
REM DISCID A40A180C
REM COMMENT “ExactAudioCopy v1.0b3”
PERFORMER “The Rolling Stones”
TITLE “Through The Past, Darkly (Big Hits Vol2) [P25L 25044]”
FILE “The Rolling Stones – Through The Past, Darkly (Big Hits Vol2) [P25L 25044].flac” WAVE
TRACK 01 AUDIO
TITLE “Jumpin’ Jack Flash”
PERFORMER “The Rolling Stones”
INDEX 00 00:00:00
INDEX 01 00:00:37
TRACK 02 AUDIO
TITLE “Mother’s Little Helper”
PERFORMER “The Rolling Stones”
INDEX 00 03:40:42
INDEX 01 03:45:72
TRACK 03 AUDIO
TITLE “2,000 Light Years From Home”
PERFORMER “The Rolling Stones”
INDEX 00 06:30:54
INDEX 01 06:35:42
TRACK 04 AUDIO
TITLE “Let’s Spend The Night Together”
PERFORMER “The Rolling Stones”
INDEX 00 11:21:29
INDEX 01 11:26:20
TRACK 05 AUDIO
TITLE “You Better Move On”
PERFORMER “The Rolling Stones”
INDEX 00 15:03:44
INDEX 01 15:10:12
TRACK 06 AUDIO
TITLE “We Love You”
PERFORMER “The Rolling Stones”
INDEX 00 17:50:44
INDEX 01 17:55:45
TRACK 07 AUDIO
TITLE “Street Fighting Man”
PERFORMER “The Rolling Stones”
INDEX 00 22:17:22
INDEX 01 22:21:02
TRACK 08 AUDIO
TITLE “She’s a Rainbow”
PERFORMER “The Rolling Stones”
INDEX 00 25:33:59
INDEX 01 25:39:70
TRACK 09 AUDIO
TITLE “Ruby Tuesday”
PERFORMER “The Rolling Stones”
INDEX 00 29:47:17
INDEX 01 29:52:50
TRACK 10 AUDIO
TITLE “Dandelion”
PERFORMER “The Rolling Stones”
INDEX 00 33:10:07
INDEX 01 33:15:07
TRACK 11 AUDIO
TITLE “Sittin’ On a Fence”
PERFORMER “The Rolling Stones”
INDEX 00 36:45:74
INDEX 01 36:50:05
TRACK 12 AUDIO
TITLE “Honky Tonk Women”
PERFORMER “The Rolling Stones”
INDEX 00 39:54:22
INDEX 01 39:59:17


Leave a Reply

Your email address will not be published. Required fields are marked *

This site uses Akismet to reduce spam. Learn how your comment data is processed.