The Rolling Stones – Therollingstonesinstoresampler




[Total: 0    Average: 0/5]

Artist: The Rolling Stones
Year: 2005
Genre: Rock
Notes: Discogs
Add. Notes:
Cover incl.: Yes
Encoder: FLAC
Bitrate: ~900 kBit/s (44.1 kHz/16 Bit/s)
Log & Cue incl.: Yes
Size: 326,75 MB
Password: “slam” (without ” “)


All Downloads/Hosters are compatible

Download 1
Share-online.biz
KatFile.com
Rapidgator.net
Download 2
Share-online.biz
KatFile.com
Rapidgator.net

Tracklist:

1. Rough Justice (3:11)
2. Brown Sugar (3:50)
3. Let Me Down Slow (4:16)
4. Happy (3:04)
5. Streets Of Love (5:09)
6. Angie (4:32)
7. Rain Fall Down (4:54)
8. It's Only Rock'n Roll (4:09)
9. Laugh I Nearly Died (4:54)
10. Miss You (3:35)
11. This Place Is Empty (3:16)
12. Start Me Up (3:33)

EAC-Log, CUE-Sheed & NFO:

Click to open spoiler
Exact Audio Copy V1.0 beta 3 from 29. August 2011

EAC extraction logfile from 29. June 2013, 8:38

The Rolling Stones / therollingstonesinstoresampler [CDVDJ 3013]

Used drive : SONY DVD+-RW DW-D56A Adapter: 1 ID: 0

Read mode : Secure
Utilize accurate stream : Yes
Defeat audio cache : Yes
Make use of C2 pointers : No

Read offset correction : 12
Overread into Lead-In and Lead-Out : No
Fill up missing offset samples with silence : Yes
Delete leading and trailing silent blocks : No
Null samples used in CRC calculations : Yes
Used interface : Native Win32 interface for Win NT & 2000

Used output format : User Defined Encoder
Selected bitrate : 768 kBit/s
Quality : High
Add ID3 tag : No
Command line compressor : C:\Program Files\Exact Audio Copy\FLAC\FLAC.EXE
Additional command line options : -V -8 -T “Date=%year%” -T “Genre=%genre%” %source%

TOC of the extracted CD

Track | Start | Length | Start sector | End sector
———————————————————
1 | 0:00.00 | 3:12.54 | 0 | 14453
2 | 3:12.54 | 3:50.11 | 14454 | 31714
3 | 7:02.65 | 4:16.27 | 31715 | 50941
4 | 11:19.17 | 3:05.38 | 50942 | 64854
5 | 14:24.55 | 5:09.43 | 64855 | 88072
6 | 19:34.23 | 4:33.04 | 88073 | 108551
7 | 24:07.27 | 4:54.21 | 108552 | 130622
8 | 29:01.48 | 4:09.48 | 130623 | 149345
9 | 33:11.21 | 4:55.39 | 149346 | 171509
10 | 38:06.60 | 3:35.41 | 171510 | 187675
11 | 41:42.26 | 3:16.68 | 187676 | 202443
12 | 44:59.19 | 3:32.71 | 202444 | 218414

Range status and errors

Selected range

Filename E:\RUTRA\CDVDJ 3013\The Rolling Stones – therollingstonesinstoresampler [CDVDJ 3013].wav

Peak level 100.0 %
Extraction speed 4.2 X
Range quality 100.0 %
Test CRC 0E3541CE
Copy CRC 0E3541CE
Copy OK

No errors occurred

AccurateRip summary

Track 1 not present in database
Track 2 not present in database
Track 3 not present in database
Track 4 not present in database
Track 5 not present in database
Track 6 not present in database
Track 7 not present in database
Track 8 not present in database
Track 9 not present in database
Track 10 not present in database
Track 11 not present in database
Track 12 not present in database

None of the tracks are present in the AccurateRip database

End of status report

==== Log checksum 158D0F023CED4243DEF0E37DBB491C8DFE60DBCA592E54EDA5978E9EF25B5A68 ====

REM GENRE Rock
REM DATE 2005
REM DISCID AC0B600C
REM COMMENT “ExactAudioCopy v1.0b3”
PERFORMER “The Rolling Stones”
TITLE “therollingstonesinstoresampler [CDVDJ 3013]”
FILE “The Rolling Stones – therollingstonesinstoresampler [CDVDJ 3013].flac” WAVE
TRACK 01 AUDIO
TITLE “Rough Justice”
PERFORMER “The Rolling Stones”
INDEX 01 00:00:00
TRACK 02 AUDIO
TITLE “Brown Sugar”
PERFORMER “The Rolling Stones”
INDEX 00 03:11:40
INDEX 01 03:12:54
TRACK 03 AUDIO
TITLE “Let Me Down Slow”
PERFORMER “The Rolling Stones”
INDEX 00 07:02:07
INDEX 01 07:02:65
TRACK 04 AUDIO
TITLE “Happy”
PERFORMER “The Rolling Stones”
INDEX 00 11:18:03
INDEX 01 11:19:17
TRACK 05 AUDIO
TITLE “Streets Of Love”
PERFORMER “The Rolling Stones”
INDEX 00 14:23:61
INDEX 01 14:24:55
TRACK 06 AUDIO
TITLE “Angie”
PERFORMER “The Rolling Stones”
INDEX 00 19:33:74
INDEX 01 19:34:23
TRACK 07 AUDIO
TITLE “Rain Fall Down”
PERFORMER “The Rolling Stones”
INDEX 00 24:06:04
INDEX 01 24:07:27
TRACK 08 AUDIO
TITLE “It’s Only Rock’n Roll”
PERFORMER “The Rolling Stones”
INDEX 00 29:01:45
INDEX 01 29:01:48
TRACK 09 AUDIO
TITLE “Laugh I Nearly Died”
PERFORMER “The Rolling Stones”
INDEX 00 33:10:08
INDEX 01 33:11:21
TRACK 10 AUDIO
TITLE “Miss You”
PERFORMER “The Rolling Stones”
INDEX 00 38:05:04
INDEX 01 38:06:60
TRACK 11 AUDIO
TITLE “This Place Is Empty”
PERFORMER “The Rolling Stones”
INDEX 00 41:41:23
INDEX 01 41:42:26
TRACK 12 AUDIO
TITLE “Start Me Up”
PERFORMER “The Rolling Stones”
INDEX 00 44:58:64
INDEX 01 44:59:19


Spread the Download

Leave a Reply

Your email address will not be published. Required fields are marked *

Enter the text from the image below
 

This site uses Akismet to reduce spam. Learn how your comment data is processed.