The Rolling Stones – Their Satanic Majesties Request (Japanese Edition)




No Cover available

Artist: The Rolling Stones
Year: 1986/1989
Genre: Rock
Notes: Discogs
Add. Notes: Japanese Edition
Watch Songs on: YouTube
Cover incl.: Yes
Encoder: FLAC
Bitrate: ~800 kBit/s (44.1 kHz/16 Bit/s)
Log & Cue incl.: Yes/Yes
Size: 263,2 MB
Password: “slam” (without ” “)


All Downloads/Hosters are compatible

Download 1
KatFile.com
Turbobit.net
Rapidgator.net
FileFactory.com
Download 2
KatFile.com
Turbobit.net
Rapidgator.net
FileFactory.com

Tracklist:

1 Sing This All Together 3:46
2 Citadel 2:50
3 In Another Land 3:13
4 2000 Man 3:05
5 Sing This All Together (See What Happens) 7:58
6 She's A Rainbow 4:35
7 The Lantern 4:24
8 Gomper 5:12
9 2000 Light Years From Home 4:45
10 On With The Show 3:40

EAC-Log, CUE-Sheed & NFO:

Click to open spoiler
Exact Audio Copy V1.0 beta 3 from 29. August 2011

Отчёт EAC об извлечении, выполненном 6. мая 2015, 14:04

The Rolling Stones / Their Satanic Majesties Request

Дисковод: Optiarc DVD RW AD-7203S Adapter: 0 ID: 0

Режим чтения : Достоверность
Использование точного потока : Да
Отключение кэша аудио : Да
Использование указателей C2 : Нет

Коррекция смещения при чтении : 48
Способность читать области Lead-in и Lead-out : Нет
Заполнение пропущенных сэмплов тишиной : Да
Удаление блоков с тишиной в начале и конце : Нет
При вычислениях CRC использовались нулевые сэмплы : Да
Интерфейс : Встроенный Win32-интерфейс для Win NT/2000

Выходной формат : Пользовательский кодировщик
Выбранный битрейт : 128 kBit/s
Качество : Высокий
Добавление ID3-тега : Нет
Утилита сжатия : C:\Program Files\Exact Audio Copy\Flac\flac.exe
Дополнительные параметры : -V -8 -T “Date=%year%” -T “Genre=%genre%” %source%

TOC извлечённого CD

Трек | Старт | Длительность | Начальный сектор | Конечный сектор
———————————————————————
1 | 0:00.37 | 3:47.45 | 37 | 17106
2 | 3:48.07 | 2:50.53 | 17107 | 29909
3 | 6:38.60 | 3:13.45 | 29910 | 44429
4 | 9:52.30 | 3:07.37 | 44430 | 58491
5 | 12:59.67 | 8:34.10 | 58492 | 97051
6 | 21:34.02 | 4:35.53 | 97052 | 117729
7 | 26:09.55 | 4:23.27 | 117730 | 137481
8 | 30:33.07 | 5:09.08 | 137482 | 160664
9 | 35:42.15 | 4:45.00 | 160665 | 182039
10 | 40:27.15 | 3:40.47 | 182040 | 198586

Характеристики диапазона извлечения и сообщения об ошибках

Выбранный диапазон

Имя файла F:\EAC\The Rolling Stones – Their Satanic Majesties Request (P25L-25042)\The Rolling Stones – Their Satanic Majesties Request (P25L-25042)\The Rolling Stones – Their Satanic Majesties Request.wav

Пиковый уровень 100.0 %
Скорость извлечения 3.6 X
Качество диапазона 100.0 %
CRC теста AEE02FB9
CRC копии AEE02FB9
Копирование… OK

Ошибок не произошло

AccurateRip: сводка

Трек 1 точность не определена (достоверность 3) [1A05ADAB], AccurateRip вернул [F981A40D] (AR v2)
Трек 2 точность не определена (достоверность 3) [5E0003CF], AccurateRip вернул [FDF1FE64] (AR v2)
Трек 3 точность не определена (достоверность 3) [50EE694D], AccurateRip вернул [EF8B7FEE] (AR v2)
Трек 4 точность не определена (достоверность 3) [AECEE600], AccurateRip вернул [059BA0AD] (AR v2)
Трек 5 точность не определена (достоверность 3) [811D9CBA], AccurateRip вернул [D8048DA5] (AR v2)
Трек 6 точность не определена (достоверность 3) [50B3B903], AccurateRip вернул [A98250B5] (AR v2)
Трек 7 точность не определена (достоверность 3) [9B33C9D3], AccurateRip вернул [2995EC10] (AR v2)
Трек 8 точность не определена (достоверность 3) [8C37AAC1], AccurateRip вернул [C810AEE2] (AR v2)
Трек 9 точность не определена (достоверность 3) [9B8018C7], AccurateRip вернул [F277A3F9] (AR v2)
Трек 10 точность не определена (достоверность 3) [449DDC00], AccurateRip вернул [482C6A17] (AR v2)

Ни один трек не прошёл проверки на точность
В вашей базе может быть иной вариант штамповки диска

Конец отчёта

==== Контрольная сумма отчёта 71BEDDE262C8FE0D1AA620BFF6DF67F37439E357BBF1B269D3BFCD2B77A7F654 ====

REM GENRE Rock
REM DATE 1986
REM DISCID 7A0A570A
REM COMMENT “ExactAudioCopy v1.0b3”
PERFORMER “The Rolling Stones”
TITLE “Their Satanic Majesties Request”
FILE “The Rolling Stones – Their Satanic Majesties Request.flac” WAVE
TRACK 01 AUDIO
TITLE “Sing This All Together”
PERFORMER “The Rolling Stones”
INDEX 00 00:00:00
INDEX 01 00:00:37
TRACK 02 AUDIO
TITLE “Citadel”
PERFORMER “The Rolling Stones”
INDEX 01 03:48:07
TRACK 03 AUDIO
TITLE “In Another Land”
PERFORMER “The Rolling Stones”
INDEX 01 06:38:60
TRACK 04 AUDIO
TITLE “2,000 Man”
PERFORMER “The Rolling Stones”
INDEX 01 09:52:30
TRACK 05 AUDIO
TITLE “Sing This All Together (See What Happens)”
PERFORMER “The Rolling Stones”
INDEX 01 12:59:67
TRACK 06 AUDIO
TITLE “She’s A Rainbow”
PERFORMER “The Rolling Stones”
INDEX 01 21:34:02
TRACK 07 AUDIO
TITLE “The Lantern”
PERFORMER “The Rolling Stones”
INDEX 01 26:09:55
TRACK 08 AUDIO
TITLE “Gomper”
PERFORMER “The Rolling Stones”
INDEX 01 30:33:07
TRACK 09 AUDIO
TITLE “2,000 Light Years From Home”
PERFORMER “The Rolling Stones”
INDEX 01 35:42:15
TRACK 10 AUDIO
TITLE “On With The Show”
PERFORMER “The Rolling Stones”
INDEX 01 40:27:15


Leave a Reply

Your email address will not be published. Required fields are marked *

Enter the text from the image below
 

This site uses Akismet to reduce spam. Learn how your comment data is processed.