The Rolling Stones – The Singles 1971-2006




Artist: The Rolling Stones
Year: 2011
Genre: Rock
Notes: Discogs
Add. Notes:
Cover incl.: Yes
Encoder: FLAC
Bitrate: ~900 kBit/s (44.1 kHz/16 Bit/s)
Log & Cue incl.: Yes
Size: 524,1 MB
Password: “slam” (without ” “)


All Downloads/Hosters are compatible

Download 1
KatFile.com
Turbobit.net
FileFactory.com
Rapidgator.net
Download 2
KatFile.com
Turbobit.net
FileFactory.com
Rapidgator.net

Tracklist:

1. Tumbling Dice
2. Angie
3. Through The Lonely Nights
4. Hot Stuff
5. Beast Of Burden
6. Emotional Rescue
7. Start Me Up
8. Undercover Of The Night (Dub)
9. Harlem Shuffle (London Mix)
10. Ruby Tuesday (Live)
11. Love Is Strong (Teddy Riley Extended Remix)
12. Out Of Tears (Bob Clearmountain Remix Edit)
13. Like A Rolling Stone (Album Version)
14. Anybody Seen My Baby (Soul Solution Remix Edit)
15. Don't Stop (New Rock Mix)
16. Rain Fall Down (Will.i.am Remix)

EAC-Log, CUE-Sheed & NFO:

Click to open spoiler
Exact Audio Copy V1.0 beta 3 from 29. August 2011

EAC extraction logfile from 4. April 2013, 15:28

The Rolling Stones / The Singles 1971-2006 Sampler (RSBOX1)

Used drive : HL-DT-STDVD+-RW GH50N Adapter: 0 ID: 1

Read mode : Secure
Utilize accurate stream : Yes
Defeat audio cache : Yes
Make use of C2 pointers : No

Read offset correction : 667
Overread into Lead-In and Lead-Out : No
Fill up missing offset samples with silence : Yes
Delete leading and trailing silent blocks : No
Null samples used in CRC calculations : Yes
Used interface : Native Win32 interface for Win NT & 2000

Used output format : User Defined Encoder
Selected bitrate : 768 kBit/s
Quality : High
Add ID3 tag : No
Command line compressor : C:\Program Files (x86)\Exact Audio Copy\FLAC\FLAC.EXE
Additional command line options : -V -8 -T “Date=%year%” -T “Genre=%genre%” %source%

TOC of the extracted CD

Track | Start | Length | Start sector | End sector
———————————————————
1 | 0:00.00 | 3:44.20 | 0 | 16819
2 | 3:44.20 | 4:32.29 | 16820 | 37248
3 | 8:16.49 | 4:12.48 | 37249 | 56196
4 | 12:29.22 | 5:22.26 | 56197 | 80372
5 | 17:51.48 | 4:26.18 | 80373 | 100340
6 | 22:17.66 | 5:39.48 | 100341 | 125813
7 | 27:57.39 | 3:33.32 | 125814 | 141820
8 | 31:30.71 | 6:25.07 | 141821 | 170702
9 | 37:56.03 | 6:22.03 | 170703 | 199355
10 | 44:18.06 | 4:15.40 | 199356 | 218520
11 | 48:33.46 | 5:05.47 | 218521 | 241442
12 | 53:39.18 | 4:21.60 | 241443 | 261077
13 | 58:01.03 | 5:37.58 | 261078 | 286410
14 | 63:38.61 | 4:24.74 | 286411 | 306284
15 | 68:03.60 | 4:02.24 | 306285 | 324458
16 | 72:06.09 | 4:04.62 | 324459 | 342820

Range status and errors

Selected range

Filename C:\222\RUTRA1\RSBOX1\The Rolling Stones – The Singles 1971-2006 Sampler (RSBOX1).wav

Peak level 99.9 %
Extraction speed 3.4 X
Range quality 100.0 %
Test CRC 302DAB07
Copy CRC 302DAB07
Copy OK

No errors occurred

AccurateRip summary

Track 1 not present in database
Track 2 not present in database
Track 3 not present in database
Track 4 not present in database
Track 5 not present in database
Track 6 not present in database
Track 7 not present in database
Track 8 not present in database
Track 9 not present in database
Track 10 not present in database
Track 11 not present in database
Track 12 not present in database
Track 13 not present in database
Track 14 not present in database
Track 15 not present in database
Track 16 not present in database

None of the tracks are present in the AccurateRip database

End of status report

==== Log checksum ED3F0E16ED7A1361482C6E98E541EF0E963C179C3F98D6751BE351575B263EA9 ====

REM GENRE “Classic Rock”
REM DATE 2011
REM DISCID EF11DA10
REM COMMENT “ExactAudioCopy v1.0b3”
CATALOG 0602527656144
PERFORMER “The Rolling Stones”
TITLE “The Singles 1971-2006 Sampler (RSBOX1)”
FILE “The Rolling Stones – The Singles 1971-2006 Sampler (RSBOX1).flac” WAVE
TRACK 01 AUDIO
TITLE “Tumbling Dice”
PERFORMER “The Rolling Stones”
ISRC GBCJN0500014
INDEX 01 00:00:00
TRACK 02 AUDIO
TITLE “Angie”
PERFORMER “The Rolling Stones”
ISRC GBCJN0500011
INDEX 00 03:42:37
INDEX 01 03:44:20
TRACK 03 AUDIO
TITLE “Through The Lonely Nights”
PERFORMER “The Rolling Stones”
ISRC GBCJN0500027
INDEX 00 08:14:66
INDEX 01 08:16:49
TRACK 04 AUDIO
TITLE “Hot Stuff”
PERFORMER “The Rolling Stones”
ISRC GBUM70904573
INDEX 00 12:27:39
INDEX 01 12:29:22
TRACK 05 AUDIO
TITLE “Beast Of Burden”
PERFORMER “The Rolling Stones”
ISRC GBCJN7800009
INDEX 00 17:49:65
INDEX 01 17:51:48
TRACK 06 AUDIO
TITLE “Emotional Rescue”
PERFORMER “The Rolling Stones”
ISRC GBCJN8000008
INDEX 00 22:16:08
INDEX 01 22:17:66
INDEX 02 27:55:56
TRACK 07 AUDIO
TITLE “Start Me Up”
PERFORMER “The Rolling Stones”
ISRC GBCJN8100001
INDEX 00 27:55:56
INDEX 01 27:57:39
TRACK 08 AUDIO
TITLE “Undercover Of The Night (Dub Version)”
PERFORMER “The Rolling Stones”
ISRC GBUM71030696
INDEX 00 31:29:13
INDEX 01 31:30:71
TRACK 09 AUDIO
TITLE “Harlem Shuffle (London Mix)”
PERFORMER “The Rolling Stones”
ISRC GBUM71030700
INDEX 00 37:54:20
INDEX 01 37:56:03
TRACK 10 AUDIO
TITLE “Ruby Tuesday (Live)”
PERFORMER “The Rolling Stones”
ISRC GBCJN9100006
INDEX 00 44:16:23
INDEX 01 44:18:06
TRACK 11 AUDIO
TITLE “Love Is Strong (Teddy Riley Extended Remix)”
PERFORMER “The Rolling Stones”
ISRC GBUM71030548
INDEX 00 48:31:63
INDEX 01 48:33:46
TRACK 12 AUDIO
TITLE “Out Of Tears (Bob Clearmountain Remix Edit)”
PERFORMER “The Rolling Stones”
ISRC GBUM71030739
INDEX 00 53:37:35
INDEX 01 53:39:18
TRACK 13 AUDIO
TITLE “Like A Rolling Stone (Album Version)”
PERFORMER “The Rolling Stones”
ISRC GBCJN9500002
INDEX 00 57:59:21
INDEX 01 58:01:03
TRACK 14 AUDIO
TITLE “Anybody Seen My Baby? (Soul Solution Remix Edit)”
PERFORMER “The Rolling Stones”
ISRC GBUM71030747
INDEX 00 63:37:03
INDEX 01 63:38:61
TRACK 15 AUDIO
TITLE “Don’t Stop (New Rock Mix)”
PERFORMER “The Rolling Stones”
ISRC GBUM71030517
INDEX 00 68:02:02
INDEX 01 68:03:60
TRACK 16 AUDIO
TITLE “Rain Fall Down (will.i.am Remix)”
PERFORMER “The Rolling Stones”
ISRC GBUM71030797
INDEX 00 72:04:26
INDEX 01 72:06:09


Leave a Reply

Your email address will not be published. Required fields are marked *

Enter the text from the image below
 

This site uses Akismet to reduce spam. Learn how your comment data is processed.