The Rolling Stones – The Rolling Stones, Now!




Artist: The Rolling Stones
Year: 1965/1988
Genre: Rock
Notes: Discogs
Add. Notes:
Cover incl.: Yes
Encoder: FLAC
Bitrate: ~700 kBit/s (44.1 kHz/16 Bit/s)
Log & Cue incl.: Yes
Size: 193,61 MB
Password: “slam” (without ” “)


All Downloads/Hosters are compatible

Download 1
Turbobit.net
NitroFlare.com
KatFile.com
Rapidgator.net
Download 2
Turbobit.net
NitroFlare.com
KatFile.com
Rapidgator.net

Tracklist:

1. Everybody Needs Somebody To Love (Version 2) 
	
2. Down Home Girl 	
3. You Can't Catch Me 	
4. Heart Of Stone 	
5. What A Shame 	
6. Mona (I Need You Baby) 	
7. Down The Road Apiece 	
8. Off The Hook 	
9. Pain In My Heart (Version 1) 	
10. Oh Baby (We Got A Good Thing Goin') (Version 1) 
	
11. Little Red Rooster 	
12. Surprise, Surprise

EAC-Log, CUE-Sheed & NFO:

Click to open spoiler
Exact Audio Copy V1.0 beta 3 from 29. August 2011

EAC extraction logfile from 26. June 2013, 17:09

The Rolling Stones / The Rolling Stones, Now! (3rd West German Pressing)

Used drive : _NEC DVD+-RW ND-6500A Adapter: 1 ID: 0

Read mode : Secure
Utilize accurate stream : Yes
Defeat audio cache : Yes
Make use of C2 pointers : No

Read offset correction : 48
Overread into Lead-In and Lead-Out : No
Fill up missing offset samples with silence : Yes
Delete leading and trailing silent blocks : No
Null samples used in CRC calculations : Yes
Used interface : Native Win32 interface for Win NT & 2000

Used output format : User Defined Encoder
Selected bitrate : 768 kBit/s
Quality : High
Add ID3 tag : No
Command line compressor : C:\Program Files\Exact Audio Copy\FLAC\FLAC.EXE
Additional command line options : -V -8 -T “Date=%year%” -T “Genre=%genre%” %source%

TOC of the extracted CD

Track | Start | Length | Start sector | End sector
———————————————————
1 | 0:00.33 | 3:01.02 | 33 | 13609
2 | 3:01.35 | 4:15.40 | 13610 | 32774
3 | 7:17.00 | 3:40.30 | 32775 | 49304
4 | 10:57.30 | 2:52.53 | 49305 | 62257
5 | 13:50.08 | 3:09.30 | 62258 | 76462
6 | 16:59.38 | 3:37.52 | 76463 | 92789
7 | 20:37.15 | 3:01.38 | 92790 | 106402
8 | 23:38.53 | 2:39.30 | 106403 | 118357
9 | 26:18.08 | 2:15.20 | 118358 | 128502
10 | 28:33.28 | 2:12.60 | 128503 | 138462
11 | 30:46.13 | 3:08.55 | 138463 | 152617
12 | 33:54.68 | 2:30.00 | 152618 | 163867

Range status and errors

Selected range

Filename E:\RUTRA\1965 – Now\The Rolling Stones – The Rolling Stones, Now! (3rd West German Pressing).wav

Peak level 93.2 %
Extraction speed 1.6 X
Range quality 99.9 %
Test CRC 9F0AFFBD
Copy CRC 9F0AFFBD
Copy OK

No errors occurred

AccurateRip summary

Track 1 accurately ripped (confidence 10) [E0F9D4FE] (AR v1)
Track 2 accurately ripped (confidence 2) [D43865BD] (AR v2)
Track 3 accurately ripped (confidence 2) [FC643000] (AR v2)
Track 4 accurately ripped (confidence 2) [E0F5E0FC] (AR v2)
Track 5 accurately ripped (confidence 2) [E7896325] (AR v2)
Track 6 accurately ripped (confidence 2) [065A578D] (AR v2)
Track 7 accurately ripped (confidence 2) [78C7C272] (AR v2)
Track 8 accurately ripped (confidence 2) [6061CAE2] (AR v2)
Track 9 accurately ripped (confidence 2) [DC7EC7C8] (AR v2)
Track 10 accurately ripped (confidence 2) [C438830B] (AR v2)
Track 11 accurately ripped (confidence 2) [AC88B3F7] (AR v2)
Track 12 accurately ripped (confidence 2) [4D7F3E48] (AR v2)

All tracks accurately ripped

End of status report

==== Log checksum B5702AEAE15F2A5F6F3D79F38EC3415EE8E2676E6DCCE3F8F0385C04AA3338B2 ====

REM GENRE Rock
REM DATE 1965
REM DISCID 9508880C
REM COMMENT “ExactAudioCopy v1.0b3”
CATALOG 0042282013323
PERFORMER “The Rolling Stones”
TITLE “The Rolling Stones, Now! (3rd West German Pressing)”
FILE “The Rolling Stones – The Rolling Stones, Now! (3rd West German Pressing).flac” WAVE
TRACK 01 AUDIO
TITLE “Everybody Needs Somebody To Love (Version 2)”
PERFORMER “The Rolling Stones”
ISRC USA176500010
INDEX 00 00:00:00
INDEX 01 00:00:33
TRACK 02 AUDIO
TITLE “Down Home Girl”
PERFORMER “The Rolling Stones”
ISRC USA176500110
INDEX 00 02:56:45
INDEX 01 03:01:35
TRACK 03 AUDIO
TITLE “You Can’t Catch Me”
PERFORMER “The Rolling Stones”
ISRC USA176500120
INDEX 00 07:12:20
INDEX 01 07:17:00
TRACK 04 AUDIO
TITLE “Heart Of Stone”
PERFORMER “The Rolling Stones”
ISRC USA176500010
INDEX 00 10:51:73
INDEX 01 10:57:30
TRACK 05 AUDIO
TITLE “What A Shame”
PERFORMER “The Rolling Stones”
ISRC USA176500130
INDEX 00 13:44:08
INDEX 01 13:50:08
TRACK 06 AUDIO
TITLE “Mona”
PERFORMER “The Rolling Stones”
ISRC USA176430104
INDEX 00 16:53:45
INDEX 01 16:59:38
TRACK 07 AUDIO
TITLE “Down The Road Apiece”
PERFORMER “The Rolling Stones”
ISRC USA176500140
INDEX 00 20:32:28
INDEX 01 20:37:15
TRACK 08 AUDIO
TITLE “Off The Hook”
PERFORMER “The Rolling Stones”
ISRC USA176500150
INDEX 00 23:33:10
INDEX 01 23:38:53
TRACK 09 AUDIO
TITLE “Pain In My Heart”
PERFORMER “The Rolling Stones”
ISRC USA176500160
INDEX 00 26:13:05
INDEX 01 26:18:08
TRACK 10 AUDIO
TITLE “Oh Baby (We Got A Good Thing Goin’)”
PERFORMER “The Rolling Stones”
ISRC USA176500170
INDEX 00 28:28:74
INDEX 01 28:33:28
TRACK 11 AUDIO
TITLE “Little Red Rooster”
PERFORMER “The Rolling Stones”
ISRC USA176400080
INDEX 00 30:41:18
INDEX 01 30:46:13
TRACK 12 AUDIO
TITLE “Surprise, Surprise”
PERFORMER “The Rolling Stones”
ISRC USA176500180
INDEX 00 33:51:38
INDEX 01 33:54:68


Leave a Reply

Your email address will not be published. Required fields are marked *

Enter the text from the image below
 

This site uses Akismet to reduce spam. Learn how your comment data is processed.