The Rolling Stones – The Rolling Stones, Now! (Japanese Edition)




Artist: The Rolling Stones
Year: 1965/1989
Genre: Rock
Notes: Discogs
Add. Notes: Japanese Edition
Cover incl.: Yes
Encoder: FLAC
Bitrate: ~700 kBit/s (44.1 kHz/16 Bit/s)
Log & Cue incl.: Yes
Size: 258,8 MB
Password: “slam” (without ” “)


All Downloads/Hosters are compatible

Download 1
Turbobit.net
KatFile.com
Rapidgator.net
NitroFlare.com
Download 2
Turbobit.net
KatFile.com
Rapidgator.net
NitroFlare.com

Tracklist:

1. Everybody Needs Somebody To Love (Version 2) 
	
2. Down Home Girl 	
3. You Can't Catch Me 	
4. Heart Of Stone 	
5. What A Shame 	
6. Mona (I Need You Baby) 	
7. Down The Road Apiece 	
8. Off The Hook 	
9. Pain In My Heart (Version 1) 	
10. Oh Baby (We Got A Good Thing Goin') (Version 1) 
	
11. Little Red Rooster 	
12. Surprise, Surprise

EAC-Log, CUE-Sheed & NFO:

Click to open spoiler
Exact Audio Copy V1.0 beta 3 from 29. August 2011

EAC extraction logfile from 6. April 2013, 21:13

The Rolling Stones / The Rolling Stones, Now! (P25L 25034)

Used drive : PLEXTOR DVDR PX-891SA Adapter: 1 ID: 0

Read mode : Secure
Utilize accurate stream : Yes
Defeat audio cache : Yes
Make use of C2 pointers : No

Read offset correction : 6
Overread into Lead-In and Lead-Out : No
Fill up missing offset samples with silence : Yes
Delete leading and trailing silent blocks : No
Null samples used in CRC calculations : Yes
Used interface : Native Win32 interface for Win NT & 2000

Used output format : User Defined Encoder
Selected bitrate : 1024 kBit/s
Quality : High
Add ID3 tag : No
Command line compressor : C:\Program Files\Exact Audio Copy\Flac\flac.exe
Additional command line options : -V -8 -T “Genre=%genre%” -T “Artist=%artist%” -T “Title=%title%” -T “Album=%albumtitle%” -T “Date=%year%” -T “Tracknumber=%tracknr%” -T “Comment=%comment%” %source%

TOC of the extracted CD

Track | Start | Length | Start sector | End sector
———————————————————
1 | 0:00.37 | 3:01.43 | 37 | 13654
2 | 3:02.05 | 4:15.40 | 13655 | 32819
3 | 7:17.45 | 3:40.42 | 32820 | 49361
4 | 10:58.12 | 2:52.48 | 49362 | 62309
5 | 13:50.60 | 3:09.35 | 62310 | 76519
6 | 17:00.20 | 3:37.72 | 76520 | 92866
7 | 20:38.17 | 3:01.08 | 92867 | 106449
8 | 23:39.25 | 2:39.30 | 106450 | 118404
9 | 26:18.55 | 2:15.25 | 118405 | 128554
10 | 28:34.05 | 2:12.60 | 128555 | 138514
11 | 30:46.65 | 3:08.57 | 138515 | 152671
12 | 33:55.47 | 2:30.03 | 152672 | 163924

Range status and errors

Selected range

Filename H:\dafnaplus\The Rolling Stones – The Rolling Stones, Now! (P25L 25034)\The Rolling Stones – The Rolling Stones, Now! (P25L 25034).wav

Peak level 100.0 %
Extraction speed 3.0 X
Range quality 100.0 %
Test CRC 9D837151
Copy CRC 9D837151
Copy OK

No errors occurred

AccurateRip summary

Track 1 accurately ripped (confidence 1) [E8EECADC] (AR v1)
Track 2 accurately ripped (confidence 1) [E6424E91] (AR v1)
Track 3 accurately ripped (confidence 1) [80B37BF8] (AR v1)
Track 4 accurately ripped (confidence 1) [E341BC5E] (AR v1)
Track 5 accurately ripped (confidence 1) [E778487F] (AR v1)
Track 6 accurately ripped (confidence 1) [629C11EF] (AR v1)
Track 7 accurately ripped (confidence 1) [76730CD3] (AR v1)
Track 8 accurately ripped (confidence 1) [9ADC9F62] (AR v1)
Track 9 accurately ripped (confidence 1) [AC6661ED] (AR v1)
Track 10 accurately ripped (confidence 1) [0AF7F281] (AR v1)
Track 11 accurately ripped (confidence 1) [5FE6EE71] (AR v1)
Track 12 accurately ripped (confidence 1) [8BF2E903] (AR v1)

All tracks accurately ripped

End of status report

==== Log checksum BABC123539894CF959B164E7BB24231492DC15FB97C7D727F51173CA0EAED5CA ====

REM GENRE Rock
REM DATE 1989
REM DISCID 8A08890C
REM COMMENT “ExactAudioCopy v1.0b3”
CATALOG 0000000000000
PERFORMER “The Rolling Stones”
TITLE “The Rolling Stones, Now! (P25L 25034)”
FILE “The Rolling Stones – The Rolling Stones, Now! (P25L 25034).flac” WAVE
TRACK 01 AUDIO
TITLE “Everybody Needs Somebody To Love (Version 2)”
PERFORMER “The Rolling Stones”
INDEX 00 00:00:00
INDEX 01 00:00:37
TRACK 02 AUDIO
TITLE “Down Home Girl”
PERFORMER “The Rolling Stones”
INDEX 00 02:57:63
INDEX 01 03:02:05
TRACK 03 AUDIO
TITLE “You Can’t Catch Me”
PERFORMER “The Rolling Stones”
INDEX 00 07:13:24
INDEX 01 07:17:45
TRACK 04 AUDIO
TITLE “Heart Of Stone”
PERFORMER “The Rolling Stones”
INDEX 00 10:53:34
INDEX 01 10:58:12
TRACK 05 AUDIO
TITLE “What A Shame”
PERFORMER “The Rolling Stones”
INDEX 00 13:45:48
INDEX 01 13:50:60
TRACK 06 AUDIO
TITLE “I Need You Baby (Mona)”
PERFORMER “The Rolling Stones”
INDEX 00 16:53:68
INDEX 01 17:00:20
TRACK 07 AUDIO
TITLE “Down The Road Apiece”
PERFORMER “The Rolling Stones”
INDEX 00 20:33:47
INDEX 01 20:38:17
TRACK 08 AUDIO
TITLE “Off The Hook”
PERFORMER “The Rolling Stones”
INDEX 00 23:34:32
INDEX 01 23:39:25
TRACK 09 AUDIO
TITLE “Pain In My Heart (Version 1)”
PERFORMER “The Rolling Stones”
INDEX 00 26:13:64
INDEX 01 26:18:55
TRACK 10 AUDIO
TITLE “Oh! Baby (We Got A Good Thing Goin’) (Version 1)”
PERFORMER “The Rolling Stones”
INDEX 00 28:29:28
INDEX 01 28:34:05
TRACK 11 AUDIO
TITLE “Little Red Rooster”
PERFORMER “The Rolling Stones”
INDEX 00 30:41:70
INDEX 01 30:46:65
TRACK 12 AUDIO
TITLE “Surprise, Surprise”
PERFORMER “The Rolling Stones”
INDEX 00 33:51:72
INDEX 01 33:55:47


Leave a Reply

Your email address will not be published. Required fields are marked *

Enter the text from the image below
 

This site uses Akismet to reduce spam. Learn how your comment data is processed.