The Rolling Stones – The Marquee Club (Live In 1971) (Japanese Deluxe Edition)




[Total: 0    Average: 0/5]

Artist: The Rolling Stones
Year: 2015
Genre: Rock
Notes: Discogs
Add. Notes: Japanese Deluxe Edition
Cover incl.: Yes
Encoder: FLAC
Bitrate: ~1000 kBit/s (44.1 kHz/16 Bit/s)
Log & Cue incl.: Yes
Size: 1046 MB
Password: “slam” (without ” “)


All Downloads/Hosters are compatible

Download 1
KatFile.com
Turbobit.net
FileFactory.com
Rapidgator.net
Download 2
KatFile.com
Turbobit.net
FileFactory.com
Rapidgator.net

Tracklist:

CD1:
1. Live With Me 
2. Dead Flowers 
3. I Got The Blues 
4. Let It Rock 
5. Midnight Rambler 
6. (I Can't Get No) Satisfaction 
7. Bitch 
8. Brown Sugar 
Bonus Tracks:
9. I Got The Blues (Alternative Take 
1) 
10. I Got The Blues (Alternative Take 
2) 
11. Bitch (Alternative Take 1) 
12. Bitch (Alternative Take 2) 

CD2: Brussels Affair (Live 1973)
1. Brown Sugar 
2. Gimme Shelter 
3. Happy 
4. Tumbling Dice 
5. Star Star 
6. Dancing With Mr. D 
7. Heartbreaker (Doo Doo Doo Doo, 
Doo) 
8. Angie 

CD3:
1. You Can't Always Get What You 
Want 
2. Midnight Rambler 
3. Honky Tonk Woman 
4. All Down The Line 
5. Rip This Joint 
6. Jumping Jack Flash 
7. Street Fighting Man 

EAC-Log, CUE-Sheed & NFO:

Click to open spoiler
Exact Audio Copy V1.0 beta 3 from 29. August 2011

EAC extraction logfile from 27. July 2015, 11:27

The Rolling Stones / The Marquee Club – Live In 1971

Used drive : HL-DT-STDVD+-RW GH50N Adapter: 0 ID: 1

Read mode : Secure
Utilize accurate stream : Yes
Defeat audio cache : Yes
Make use of C2 pointers : No

Read offset correction : 667
Overread into Lead-In and Lead-Out : No
Fill up missing offset samples with silence : Yes
Delete leading and trailing silent blocks : No
Null samples used in CRC calculations : Yes
Used interface : Native Win32 interface for Win NT & 2000

Used output format : User Defined Encoder
Selected bitrate : 768 kBit/s
Quality : High
Add ID3 tag : No
Command line compressor : C:\Program Files (x86)\Exact Audio Copy\FLAC\FLAC.EXE
Additional command line options : -V -8 -T “Date=%year%” -T “Genre=%genre%” %source%

TOC of the extracted CD

Track | Start | Length | Start sector | End sector
———————————————————
1 | 0:00.00 | 4:17.23 | 0 | 19297
2 | 4:17.23 | 4:15.00 | 19298 | 38422
3 | 8:32.23 | 3:35.15 | 38423 | 54562
4 | 12:07.38 | 2:32.05 | 54563 | 65967
5 | 14:39.43 | 9:51.35 | 65968 | 110327
6 | 24:31.03 | 4:57.60 | 110328 | 132662
7 | 29:28.63 | 4:10.45 | 132663 | 151457
8 | 33:39.33 | 4:15.05 | 151458 | 170587
9 | 37:54.38 | 4:11.48 | 170588 | 189460
10 | 42:06.11 | 3:52.25 | 189461 | 206885
11 | 45:58.36 | 4:23.47 | 206886 | 226657
12 | 50:22.08 | 4:17.63 | 226658 | 245995

Range status and errors

Selected range

Filename C:\222\RUTRA1\2015 – Marquee Deluxe (Japan)\Audio\1971 – Marquee\The Rolling Stones – The Marquee Club – Live In 1971.wav

Peak level 94.9 %
Extraction speed 3.1 X
Range quality 100.0 %
Test CRC 1AAC0359
Copy CRC 1AAC0359
Copy OK

No errors occurred

AccurateRip summary

Track 1 accurately ripped (confidence 2) [03101B05] (AR v2)
Track 2 accurately ripped (confidence 2) [E96925AF] (AR v2)
Track 3 accurately ripped (confidence 2) [698F09FB] (AR v2)
Track 4 accurately ripped (confidence 2) [F7EEF730] (AR v2)
Track 5 accurately ripped (confidence 2) [68229CC0] (AR v2)
Track 6 accurately ripped (confidence 2) [912AA2F0] (AR v2)
Track 7 accurately ripped (confidence 2) [85EC9AB0] (AR v2)
Track 8 accurately ripped (confidence 2) [DCB975F7] (AR v2)
Track 9 accurately ripped (confidence 2) [2675D7C8] (AR v2)
Track 10 accurately ripped (confidence 2) [9A6A5DA8] (AR v2)
Track 11 accurately ripped (confidence 2) [CD1AE5A5] (AR v2)
Track 12 accurately ripped (confidence 2) [48C296DD] (AR v2)

All tracks accurately ripped

End of status report

==== Log checksum 6EE45BE7A35961E90B0956EFB2FCF1FCD5752F8E7FAEB93CF808463A1E9E8A53 ====

Exact Audio Copy V1.0 beta 3 from 29. August 2011

EAC extraction logfile from 27. July 2015, 12:04

The Rolling Stones / Brussels Affair (Live 1973) CD1

Used drive : HL-DT-STDVD+-RW GH50N Adapter: 0 ID: 1

Read mode : Secure
Utilize accurate stream : Yes
Defeat audio cache : Yes
Make use of C2 pointers : No

Read offset correction : 667
Overread into Lead-In and Lead-Out : No
Fill up missing offset samples with silence : Yes
Delete leading and trailing silent blocks : No
Null samples used in CRC calculations : Yes
Used interface : Native Win32 interface for Win NT & 2000

Used output format : User Defined Encoder
Selected bitrate : 768 kBit/s
Quality : High
Add ID3 tag : No
Command line compressor : C:\Program Files (x86)\Exact Audio Copy\FLAC\FLAC.EXE
Additional command line options : -V -8 -T “Date=%year%” -T “Genre=%genre%” %source%

TOC of the extracted CD

Track | Start | Length | Start sector | End sector
———————————————————
1 | 0:00.00 | 3:55.68 | 0 | 17692
2 | 3:55.68 | 5:32.73 | 17693 | 42665
3 | 9:28.66 | 3:14.03 | 42666 | 57218
4 | 12:42.69 | 5:04.21 | 57219 | 80039
5 | 17:47.15 | 4:16.27 | 80040 | 99266
6 | 22:03.42 | 4:37.45 | 99267 | 120086
7 | 26:41.12 | 5:03.16 | 120087 | 142827
8 | 31:44.28 | 4:59.48 | 142828 | 165300

Range status and errors

Selected range

Filename C:\222\RUTRA1\2015 – Marquee Deluxe (Japan)\Audio\1973 – Brussels\CD1\The Rolling Stones – Brussels Affair (Live 1973) CD1.wav

Peak level 100.0 %
Extraction speed 2.8 X
Range quality 100.0 %
Test CRC 66582FA1
Copy CRC 66582FA1
Copy OK

No errors occurred

AccurateRip summary

Track 1 accurately ripped (confidence 1) [6A98A2C6] (AR v2)
Track 2 accurately ripped (confidence 1) [CA63F84B] (AR v2)
Track 3 accurately ripped (confidence 1) [467D9B00] (AR v2)
Track 4 accurately ripped (confidence 1) [92B881E6] (AR v2)
Track 5 accurately ripped (confidence 1) [CBADA8DD] (AR v2)
Track 6 accurately ripped (confidence 1) [8F852773] (AR v2)
Track 7 accurately ripped (confidence 1) [2445A90F] (AR v2)
Track 8 accurately ripped (confidence 1) [AEF2475A] (AR v2)

All tracks accurately ripped

End of status report

==== Log checksum 4028FAAC685A43CABA886627102827C7A1B75F4CDAD7925F7FE285A672D20603 ====

Exact Audio Copy V1.0 beta 3 from 29. August 2011

EAC extraction logfile from 27. July 2015, 12:40

The Rolling Stones / Brussels Affair (Live 1973) CD2

Used drive : HL-DT-STDVD+-RW GH50N Adapter: 0 ID: 1

Read mode : Secure
Utilize accurate stream : Yes
Defeat audio cache : Yes
Make use of C2 pointers : No

Read offset correction : 667
Overread into Lead-In and Lead-Out : No
Fill up missing offset samples with silence : Yes
Delete leading and trailing silent blocks : No
Null samples used in CRC calculations : Yes
Used interface : Native Win32 interface for Win NT & 2000

Used output format : User Defined Encoder
Selected bitrate : 768 kBit/s
Quality : High
Add ID3 tag : No
Command line compressor : C:\Program Files (x86)\Exact Audio Copy\FLAC\FLAC.EXE
Additional command line options : -V -8 -T “Date=%year%” -T “Genre=%genre%” %source%

TOC of the extracted CD

Track | Start | Length | Start sector | End sector
———————————————————
1 | 0:00.00 | 11:19.11 | 0 | 50935
2 | 11:19.11 | 12:53.16 | 50936 | 108926
3 | 24:12.27 | 3:11.44 | 108927 | 123295
4 | 27:23.71 | 4:20.57 | 123296 | 142852
5 | 31:44.53 | 2:25.02 | 142853 | 153729
6 | 34:09.55 | 3:27.35 | 153730 | 169289
7 | 37:37.15 | 5:15.05 | 169290 | 192919

Range status and errors

Selected range

Filename C:\222\RUTRA1\2015 – Marquee Deluxe (Japan)\Audio\1973 – Brussels\CD2\The Rolling Stones – Brussels Affair (Live 1973) CD2.wav

Peak level 100.0 %
Extraction speed 2.9 X
Range quality 100.0 %
Test CRC AABAEAF0
Copy CRC AABAEAF0
Copy OK

No errors occurred

AccurateRip summary

Track 1 not present in database
Track 2 not present in database
Track 3 not present in database
Track 4 not present in database
Track 5 not present in database
Track 6 not present in database
Track 7 not present in database

None of the tracks are present in the AccurateRip database

End of status report

==== Log checksum 4B5B3617FC4DCFB85E1002406B3D41333DC89798C7FD87BBAD936A09E67C4725 ====

REM GENRE Rock
REM DATE 2015
REM DISCID 9C0CCF0C
REM COMMENT “ExactAudioCopy v1.0b3”
PERFORMER “The Rolling Stones”
TITLE “The Marquee Club – Live In 1971”
FILE “The Rolling Stones – The Marquee Club – Live In 1971.flac” WAVE
TRACK 01 AUDIO
TITLE “Live With Me”
PERFORMER “The Rolling Stones”
INDEX 01 00:00:00
TRACK 02 AUDIO
TITLE “Dead Flowers”
PERFORMER “The Rolling Stones”
INDEX 01 04:17:23
TRACK 03 AUDIO
TITLE “I Got The Blues”
PERFORMER “The Rolling Stones”
INDEX 01 08:32:23
TRACK 04 AUDIO
TITLE “Let It Rock”
PERFORMER “The Rolling Stones”
INDEX 01 12:07:38
TRACK 05 AUDIO
TITLE “Midnight Rambler”
PERFORMER “The Rolling Stones”
INDEX 01 14:39:43
TRACK 06 AUDIO
TITLE “(I can’t Get No) Satisfaction”
PERFORMER “The Rolling Stones”
INDEX 01 24:31:03
TRACK 07 AUDIO
TITLE “Bitch”
PERFORMER “The Rolling Stones”
INDEX 01 29:28:63
TRACK 08 AUDIO
TITLE “Brown Sugar”
PERFORMER “The Rolling Stones”
INDEX 01 33:39:33
TRACK 09 AUDIO
TITLE “I Got The Blues (Alternative Take 1)”
PERFORMER “The Rolling Stones”
INDEX 01 37:54:38
TRACK 10 AUDIO
TITLE “I Got The Blues (Alternative Take 2)”
PERFORMER “The Rolling Stones”
INDEX 01 42:06:11
TRACK 11 AUDIO
TITLE “Bitch (Alternative Take 1)”
PERFORMER “The Rolling Stones”
INDEX 01 45:58:36
TRACK 12 AUDIO
TITLE “Bitch (Alternative Take 2)”
PERFORMER “The Rolling Stones”
INDEX 01 50:22:08

REM GENRE Rock
REM DATE 2015
REM DISCID 60089C08
REM COMMENT “ExactAudioCopy v1.0b3”
PERFORMER “The Rolling Stones”
TITLE “Brussels Affair (Live 1973) CD1”
FILE “The Rolling Stones – Brussels Affair (Live 1973) CD1.flac” WAVE
TRACK 01 AUDIO
TITLE “Brown Sugar”
PERFORMER “The Rolling Stones”
INDEX 01 00:00:00
TRACK 02 AUDIO
TITLE “Gimme Shelter”
PERFORMER “The Rolling Stones”
INDEX 01 03:55:68
TRACK 03 AUDIO
TITLE “Happy”
PERFORMER “The Rolling Stones”
INDEX 01 09:28:66
TRACK 04 AUDIO
TITLE “Tumbling Dice”
PERFORMER “The Rolling Stones”
INDEX 01 12:42:69
TRACK 05 AUDIO
TITLE “Star Star”
PERFORMER “The Rolling Stones”
INDEX 01 17:47:15
TRACK 06 AUDIO
TITLE “Dancing with Mr.D”
PERFORMER “The Rolling Stones”
INDEX 01 22:03:42
TRACK 07 AUDIO
TITLE “Doo Doo Doo Doo Doo (Heartbreaker)”
PERFORMER “The Rolling Stones”
INDEX 01 26:41:12
TRACK 08 AUDIO
TITLE “Angie”
PERFORMER “The Rolling Stones”
INDEX 01 31:44:28

REM GENRE Rock
REM DATE 2015
REM DISCID 590A0C07
REM COMMENT “ExactAudioCopy v1.0b3”
PERFORMER “The Rolling Stones”
TITLE “Brussels Affair (Live 1973) CD2”
FILE “The Rolling Stones – Brussels Affair (Live 1973) CD2.flac” WAVE
TRACK 01 AUDIO
TITLE “You Can’t Always Get What You Want”
PERFORMER “The Rolling Stones”
INDEX 01 00:00:00
TRACK 02 AUDIO
TITLE “Midnight Rambler”
PERFORMER “The Rolling Stones”
INDEX 01 11:19:11
TRACK 03 AUDIO
TITLE “Honky Tonk Women”
PERFORMER “The Rolling Stones”
INDEX 01 24:12:27
TRACK 04 AUDIO
TITLE “All Down The Line”
PERFORMER “The Rolling Stones”
INDEX 01 27:23:71
TRACK 05 AUDIO
TITLE “Rip This Joint”
PERFORMER “The Rolling Stones”
INDEX 01 31:44:53
TRACK 06 AUDIO
TITLE “Jumping Jack Flash”
PERFORMER “The Rolling Stones”
INDEX 01 34:09:55
TRACK 07 AUDIO
TITLE “Street Fighting Man”
PERFORMER “The Rolling Stones”
INDEX 01 37:37:15


Spread the Download

Leave a Reply

Your email address will not be published. Required fields are marked *

Enter the text from the image below
 

This site uses Akismet to reduce spam. Learn how your comment data is processed.