The Rolling Stones – Tattoo You (Remastered)




Artist: The Rolling Stones
Year: 1981/2009
Genre: Rock
Notes: Discogs
Add. Notes: Remastered
Cover incl.: Yes
Encoder: FLAC
Bitrate: ~900 kBit/s (44.1 kHz/16 Bit/s)
Log & Cue incl.: Yes
Size: 311,87 MB
Password: “slam” (without ” “)


All Downloads/Hosters are compatible

Download 1
Turbobit.net
KatFile.com
Rapidgator.net
Download 2
Turbobit.net
KatFile.com
Rapidgator.net

Tracklist:

1. Start Me Up (3:33)
2. Hang Fire (2:21)
3. Slave (6:32)
4. Little T&A (3:24)
5. Black Limousine (3:32)
6. Neighbours (3:32)
7. Worried About You (5:18)
8. Tops (3:47)
9. Heaven (4:23)
10. No Use In Crying (3:25)
11. Waiting On A Friend (4:34)

EAC-Log, CUE-Sheed & NFO:

Click to open spoiler
Exact Audio Copy V1.0 beta 3 from 29. August 2011

Отчёт EAC об извлечении, выполненном 11. мая 2015, 13:45

Rolling Stones / Tattoo You

Дисковод: ATAPI iHES108 2 Adapter: 3 ID: 1

Режим чтения : Достоверность
Использование точного потока : Да
Отключение кэша аудио : Да
Использование указателей C2 : Нет

Коррекция смещения при чтении : 6
Способность читать области Lead-in и Lead-out : Нет
Заполнение пропущенных сэмплов тишиной : Да
Удаление блоков с тишиной в начале и конце : Нет
При вычислениях CRC использовались нулевые сэмплы : Да
Интерфейс : Встроенный Win32-интерфейс для Win NT/2000

Выходной формат : Пользовательский кодировщик
Выбранный битрейт : 1024 kBit/s
Качество : Высокий
Добавление ID3-тега : Нет
Утилита сжатия : C:\Program Files\Exact Audio Copy\Flac\flac.exe
Дополнительные параметры : -V -8 -T “Date=%year%” -T “Genre=%genre%” %source%

TOC извлечённого CD

Трек | Старт | Длительность | Начальный сектор | Конечный сектор
———————————————————————
1 | 0:00.00 | 3:33.05 | 0 | 15979
2 | 3:33.05 | 2:21.07 | 15980 | 26561
3 | 5:54.12 | 6:32.60 | 26562 | 56021
4 | 12:26.72 | 3:23.13 | 56022 | 71259
5 | 15:50.10 | 3:33.42 | 71260 | 87276
6 | 19:23.52 | 3:33.08 | 87277 | 103259
7 | 22:56.60 | 5:17.42 | 103260 | 127076
8 | 28:14.27 | 3:48.20 | 127077 | 144196
9 | 32:02.47 | 4:22.30 | 144197 | 163876
10 | 36:25.02 | 3:25.43 | 163877 | 179294
11 | 39:50.45 | 4:34.17 | 179295 | 199861

Характеристики диапазона извлечения и сообщения об ошибках

Выбранный диапазон

Имя файла D:\EAC-FOLDER\!!!RS_2009\Rolling Stones – Tattoo You\Rolling Stones – Tattoo You_2009\Rolling Stones – Tattoo You.wav

Пиковый уровень 99.8 %
Скорость извлечения 4.6 X
Качество диапазона 100.0 %
CRC теста 9B9F34D0
CRC копии 9B9F34D0
Копирование… OK

Ошибок не произошло

AccurateRip: сводка

Трек 1 : извлечено точно (доверие 147) [92656906] (AR v2)
Трек 2 : извлечено точно (доверие 150) [256C0342] (AR v2)
Трек 3 : извлечено точно (доверие 149) [B4FFFA58] (AR v2)
Трек 4 : извлечено точно (доверие 149) [D7F5B49B] (AR v2)
Трек 5 : извлечено точно (доверие 148) [C7669B16] (AR v2)
Трек 6 : извлечено точно (доверие 148) [6A618082] (AR v2)
Трек 7 : извлечено точно (доверие 148) [6DA0E484] (AR v2)
Трек 8 : извлечено точно (доверие 149) [976D3AB0] (AR v2)
Трек 9 : извлечено точно (доверие 146) [62C70D9B] (AR v2)
Трек 10 : извлечено точно (доверие 147) [D95AAE5D] (AR v2)
Трек 11 : извлечено точно (доверие 145) [8B00387E] (AR v2)

Все треки извлечены точно

Конец отчёта

==== Контрольная сумма отчёта D4A20C85367BA6AA59964E6A94BF874244E6B76657C6B9BBE220668803602321 ====

REM GENRE Rock
REM DATE 1981
REM DISCID A30A680B
REM COMMENT “ExactAudioCopy v1.0b3”
CATALOG 0602527015699
PERFORMER “Rolling Stones”
TITLE “Tattoo You”
FILE “Rolling Stones – Tattoo You.flac” WAVE
TRACK 01 AUDIO
TITLE “Start Me Up”
PERFORMER “Rolling Stones”
ISRC TbCJN8100001
INDEX 01 00:00:00
TRACK 02 AUDIO
TITLE “Hang Fire”
PERFORMER “Rolling Stones”
ISRC TbCJN8100002
INDEX 01 03:33:05
TRACK 03 AUDIO
TITLE “Slave”
PERFORMER “Rolling Stones”
ISRC TbCJN8100003
INDEX 01 05:54:12
TRACK 04 AUDIO
TITLE “Little T&A”
PERFORMER “Rolling Stones”
ISRC TbCJN8100004
INDEX 01 12:26:72
TRACK 05 AUDIO
TITLE “Black Limosine”
PERFORMER “Rolling Stones”
ISRC TbCJN8100005
INDEX 01 15:50:10
TRACK 06 AUDIO
TITLE “Neighbours”
PERFORMER “Rolling Stones”
ISRC TbCJN8100006
INDEX 00 19:22:12
INDEX 01 19:23:52
TRACK 07 AUDIO
TITLE “Worried About You”
PERFORMER “Rolling Stones”
ISRC TbCJN8100007
INDEX 00 22:55:12
INDEX 01 22:56:60
TRACK 08 AUDIO
TITLE “Tops”
PERFORMER “Rolling Stones”
ISRC TbCJN8100008
INDEX 01 28:14:27
TRACK 09 AUDIO
TITLE “Heaven”
PERFORMER “Rolling Stones”
ISRC TbCJN8100009
INDEX 00 32:01:10
INDEX 01 32:02:47
TRACK 10 AUDIO
TITLE “No Use In Crying”
PERFORMER “Rolling Stones”
ISRC TbCJN8100010
INDEX 01 36:25:02
TRACK 11 AUDIO
TITLE “Waiting On A Friend”
PERFORMER “Rolling Stones”
ISRC TbCJN8100011
INDEX 00 39:50:15
INDEX 01 39:50:45


Leave a Reply

Your email address will not be published. Required fields are marked *

This site uses Akismet to reduce spam. Learn how your comment data is processed.