The Rolling Stones – Tattoo You (Limited Japanese Edition)




No Cover available

Artist: The Rolling Stones
Year: 1981/2013
Genre: Rock
Notes: Discogs
Add. Notes: Limited Japanese Edition
Watch Songs on: YouTube
Cover incl.: Yes
Encoder: FLAC
Bitrate: ~800 kBit/s (44.1 kHz/16 Bit/s)
Log & Cue incl.: Yes/Yes
Size: 293,1 MB
Password: “slam” (without ” “)


All Downloads/Hosters are compatible

Download 1
KatFile.com
Turbobit.net
Rapidgator.net
FileFactory.com
Download 2
KatFile.com
Turbobit.net
Rapidgator.net
FileFactory.com

Tracklist:

1 Start Me Up 
2 Hang Fire 
3 Slave 
4 Little T & A 
5 Black Limousine 
6 Neighbors 
7 Worried About You 
8 Tops 
9 Heaven 
10 No Use In Crying 
11 Waiting On A Friend

EAC-Log, CUE-Sheed & NFO:

Click to open spoiler
Exact Audio Copy V1.0 beta 3 from 29. August 2011

EAC extraction logfile from 25. April 2014, 21:05

The Rolling Stones / Tattoo You PT-SHM

Used drive : PLEXTOR BD-R PX-B950SA Adapter: 6 ID: 0

Read mode : Secure
Utilize accurate stream : Yes
Defeat audio cache : Yes
Make use of C2 pointers : No

Read offset correction : 6
Overread into Lead-In and Lead-Out : No
Fill up missing offset samples with silence : Yes
Delete leading and trailing silent blocks : No
Null samples used in CRC calculations : Yes
Used interface : Native Win32 interface for Win NT & 2000

Used output format : Internal WAV Routines
Sample format : 44.100 Hz; 16 Bit; Stereo

TOC of the extracted CD

Track | Start | Length | Start sector | End sector
———————————————————
1 | 0:00.00 | 3:35.03 | 0 | 16127
2 | 3:35.03 | 2:21.50 | 16128 | 26752
3 | 5:56.53 | 4:56.05 | 26753 | 48957
4 | 10:52.58 | 3:24.45 | 48958 | 64302
5 | 14:17.28 | 3:34.67 | 64303 | 80419
6 | 17:52.20 | 3:34.58 | 80420 | 96527
7 | 21:27.03 | 5:18.10 | 96528 | 120387
8 | 26:45.13 | 3:49.02 | 120388 | 137564
9 | 30:34.15 | 4:23.15 | 137565 | 157304
10 | 34:57.30 | 3:26.43 | 157305 | 172797
11 | 38:23.73 | 4:35.55 | 172798 | 193477

Range status and errors

Selected range

Filename C:\Users\Meijin\Desktop\Lossless Galaxy ALLexxess\The Rolling Stones\1981 Tattoo You (Mini LP PT-SHM Universal Japan 2013)\The Rolling Stones – Tattoo You PT-SHM.wav

Peak level 90.3 %
Extraction speed 6.8 X
Range quality 100.0 %
Test CRC 87754426
Copy CRC 87754426
Copy OK

No errors occurred

AccurateRip summary

Track 1 accurately ripped (confidence 2) [96B7795A] (AR v2)
Track 2 accurately ripped (confidence 2) [733780AC] (AR v2)
Track 3 accurately ripped (confidence 2) [CEEBE95C] (AR v2)
Track 4 accurately ripped (confidence 2) [35113D24] (AR v2)
Track 5 accurately ripped (confidence 2) [7E7491D5] (AR v2)
Track 6 accurately ripped (confidence 2) [2FD39100] (AR v2)
Track 7 accurately ripped (confidence 2) [F832991E] (AR v2)
Track 8 accurately ripped (confidence 2) [9315FD91] (AR v2)
Track 9 accurately ripped (confidence 2) [0E347217] (AR v2)
Track 10 accurately ripped (confidence 2) [F234D469] (AR v2)
Track 11 accurately ripped (confidence 2) [2C29E622] (AR v2)

All tracks accurately ripped

End of status report

==== Log checksum B34175AE2D5D2C4409053527360EA0D7297484C0EBAF5DE28AEBF2EC20AC0CA6 ====

REM GENRE “Rock / Rock & Roll”
REM DATE 1981
REM DISCID 9F0A130B
REM COMMENT “ExactAudioCopy v1.0b3”
PERFORMER “The Rolling Stones”
TITLE “Tattoo You PT-SHM”
FILE “The Rolling Stones – Tattoo You PT-SHM.flac” WAVE
TRACK 01 AUDIO
TITLE “Start Me Up”
PERFORMER “The Rolling Stones”
INDEX 01 00:00:00
TRACK 02 AUDIO
TITLE “Hang Fire”
PERFORMER “The Rolling Stones”
INDEX 01 03:35:03
TRACK 03 AUDIO
TITLE “Slave”
PERFORMER “The Rolling Stones”
INDEX 01 05:56:53
TRACK 04 AUDIO
TITLE “Little T & A”
PERFORMER “The Rolling Stones”
INDEX 01 10:52:58
TRACK 05 AUDIO
TITLE “Black Limousine”
PERFORMER “The Rolling Stones”
INDEX 01 14:17:28
TRACK 06 AUDIO
TITLE “Neighbors”
PERFORMER “The Rolling Stones”
INDEX 00 17:50:19
INDEX 01 17:52:20
TRACK 07 AUDIO
TITLE “Worried About You”
PERFORMER “The Rolling Stones”
INDEX 00 21:24:26
INDEX 01 21:27:03
TRACK 08 AUDIO
TITLE “Tops”
PERFORMER “The Rolling Stones”
INDEX 01 26:45:13
TRACK 09 AUDIO
TITLE “Heaven”
PERFORMER “The Rolling Stones”
INDEX 00 30:31:56
INDEX 01 30:34:15
TRACK 10 AUDIO
TITLE “No Use In Crying”
PERFORMER “The Rolling Stones”
INDEX 01 34:57:30
TRACK 11 AUDIO
TITLE “Waiting On A Friend”
PERFORMER “The Rolling Stones”
INDEX 01 38:23:73


Leave a Reply

Your email address will not be published. Required fields are marked *

This site uses Akismet to reduce spam. Learn how your comment data is processed.