The Rolling Stones – Sweet Summer Sun – Hyde Park Live




[Total: 0    Average: 0/5]

Artist: The Rolling Stones
Year: 2013
Genre: Rock
Notes: Discogs
Add. Notes:
Cover incl.: Yes
Encoder: FLAC
Bitrate: ~900 kBit/s (44.1 kHz/16 Bit/s)
Log & Cue incl.: Yes
Size: 826,7 MB
Password: “slam” (without ” “)


All Downloads/Hosters are compatible

Download 1
KatFile.com
Turbobit.net
FileFactory.com
Rapidgator.net
Download 2
KatFile.com
Turbobit.net
FileFactory.com
Rapidgator.net

Tracklist:

Disc 1
1. Start Me Up  (4:18)
2. It's Only Rock'N'Roll  (4:47)
3. Tumbling Dice  (4:05)
4. Emotional Resque  (5:54)
5. Street Fighting Man  (5:23)
6. Ruby Tuesday  (3:22)
7. Doom And Gloom  (4:17)
8. Paint It Black  (5:01)
9. Honky Tonk Women  (6:59)
10. You Got The Silver  (3:18)
11. Before They Make Me Run  (4:13)

Disc 2
1. Miss You  (7:52)
2. Midnight Rambler  (11:55)
3. Gimme Shelter  (7:16)
4. Junpin' Jack Flash  (4:54)
5. Sympathy For The Devil  (6:47)
6. Brown Sugar  (4:55)
7. You Can't Always Get What You Want  (8:05)
8. (I Can't Get No) Satisfaction  (8:20)

EAC-Log, CUE-Sheed & NFO:

Click to open spoiler
Exact Audio Copy V1.0 beta 3 from 29. August 2011

EAC extraction logfile from 15. November 2013, 11:50

The Rolling Stones / Sweet Summer Sun – Hyde Park Live (CD1)

Used drive : HL-DT-STDVD+-RW GH50N Adapter: 0 ID: 1

Read mode : Secure
Utilize accurate stream : Yes
Defeat audio cache : Yes
Make use of C2 pointers : No

Read offset correction : 667
Overread into Lead-In and Lead-Out : No
Fill up missing offset samples with silence : Yes
Delete leading and trailing silent blocks : No
Null samples used in CRC calculations : Yes
Used interface : Native Win32 interface for Win NT & 2000

Used output format : User Defined Encoder
Selected bitrate : 768 kBit/s
Quality : High
Add ID3 tag : No
Command line compressor : C:\Program Files (x86)\Exact Audio Copy\FLAC\FLAC.EXE
Additional command line options : -V -8 -T “Date=%year%” -T “Genre=%genre%” %source%

TOC of the extracted CD

Track | Start | Length | Start sector | End sector
———————————————————
1 | 0:00.00 | 4:18.14 | 0 | 19363
2 | 4:18.14 | 4:46.52 | 19364 | 40865
3 | 9:04.66 | 4:05.05 | 40866 | 59245
4 | 13:09.71 | 5:53.50 | 59246 | 85770
5 | 19:03.46 | 5:22.69 | 85771 | 109989
6 | 24:26.40 | 3:21.43 | 109990 | 125107
7 | 27:48.08 | 4:17.13 | 125108 | 144395
8 | 32:05.21 | 5:01.15 | 144396 | 166985
9 | 37:06.36 | 6:58.51 | 166986 | 198386
10 | 44:05.12 | 3:18.08 | 198387 | 213244
11 | 47:23.20 | 4:13.12 | 213245 | 232231

Range status and errors

Selected range

Filename C:\222\2013 – Sweet Summer Sun\CD1\The Rolling Stones – Sweet Summer Sun – Hyde Park Live (CD1).wav

Peak level 100.0 %
Extraction speed 3.2 X
Range quality 100.0 %
Test CRC DD9D8F1C
Copy CRC DD9D8F1C
Copy OK

No errors occurred

AccurateRip summary

Track 1 not present in database
Track 2 not present in database
Track 3 not present in database
Track 4 not present in database
Track 5 not present in database
Track 6 not present in database
Track 7 not present in database
Track 8 not present in database
Track 9 not present in database
Track 10 not present in database
Track 11 not present in database

None of the tracks are present in the AccurateRip database

End of status report

==== Log checksum BFB1180B49EF2BA6591B1BDDAE2D4B835CE13766F7C3A4A474DDA471A177B23E ====

Exact Audio Copy V1.0 beta 3 from 29. August 2011

EAC extraction logfile from 15. November 2013, 12:34

The Rolling Stones / Sweet Summer Sun – Hyde Park Live (CD2)

Used drive : HL-DT-STDVD+-RW GH50N Adapter: 0 ID: 1

Read mode : Secure
Utilize accurate stream : Yes
Defeat audio cache : Yes
Make use of C2 pointers : No

Read offset correction : 667
Overread into Lead-In and Lead-Out : No
Fill up missing offset samples with silence : Yes
Delete leading and trailing silent blocks : No
Null samples used in CRC calculations : Yes
Used interface : Native Win32 interface for Win NT & 2000

Used output format : User Defined Encoder
Selected bitrate : 768 kBit/s
Quality : High
Add ID3 tag : No
Command line compressor : C:\Program Files (x86)\Exact Audio Copy\FLAC\FLAC.EXE
Additional command line options : -V -8 -T “Date=%year%” -T “Genre=%genre%” %source%

TOC of the extracted CD

Track | Start | Length | Start sector | End sector
———————————————————
1 | 0:00.00 | 7:52.36 | 0 | 35435
2 | 7:52.36 | 11:54.72 | 35436 | 89057
3 | 19:47.33 | 7:16.04 | 89058 | 121761
4 | 27:03.37 | 4:53.73 | 121762 | 143809
5 | 31:57.35 | 6:46.51 | 143810 | 174310
6 | 38:44.11 | 4:55.27 | 174311 | 196462
7 | 43:39.38 | 8:04.68 | 196463 | 232830
8 | 51:44.31 | 8:20.19 | 232831 | 270349

Range status and errors

Selected range

Filename C:\222\2013 – Sweet Summer Sun\CD2\The Rolling Stones – Sweet Summer Sun – Hyde Park Live (CD2).wav

Peak level 100.0 %
Extraction speed 3.3 X
Range quality 100.0 %
Test CRC E25F5AF4
Copy CRC E25F5AF4
Copy OK

No errors occurred

AccurateRip summary

Track 1 not present in database
Track 2 not present in database
Track 3 not present in database
Track 4 not present in database
Track 5 not present in database
Track 6 not present in database
Track 7 not present in database
Track 8 not present in database

None of the tracks are present in the AccurateRip database

End of status report

==== Log checksum 840D1B755E5A2300F60E11B2135257378F033E61C1B93573F3DCA9070763616D ====

REM GENRE Rock
REM DATE 2013
REM DISCID 9D0C180B
REM COMMENT “ExactAudioCopy v1.0b3”
PERFORMER “The Rolling Stones”
TITLE “Sweet Summer Sun – Hyde Park Live (CD1)”
FILE “The Rolling Stones – Sweet Summer Sun – Hyde Park Live (CD1).flac” WAVE
TRACK 01 AUDIO
TITLE “Start Me Up”
PERFORMER “The Rolling Stones”
INDEX 01 00:00:00
TRACK 02 AUDIO
TITLE “It’s Only Rock’N’Roll”
PERFORMER “The Rolling Stones”
INDEX 01 04:18:14
TRACK 03 AUDIO
TITLE “Tumbling Dice”
PERFORMER “The Rolling Stones”
INDEX 01 09:04:66
TRACK 04 AUDIO
TITLE “Emotional Resque”
PERFORMER “The Rolling Stones”
INDEX 01 13:09:71
TRACK 05 AUDIO
TITLE “Street Fighting Man”
PERFORMER “The Rolling Stones”
INDEX 01 19:03:46
TRACK 06 AUDIO
TITLE “Ruby Tuesday”
PERFORMER “The Rolling Stones”
INDEX 01 24:26:40
TRACK 07 AUDIO
TITLE “Doom And Gloom”
PERFORMER “The Rolling Stones”
INDEX 01 27:48:08
TRACK 08 AUDIO
TITLE “Paint It Black”
PERFORMER “The Rolling Stones”
INDEX 01 32:05:21
TRACK 09 AUDIO
TITLE “Honky Tonk Women”
PERFORMER “The Rolling Stones”
INDEX 01 37:06:36
TRACK 10 AUDIO
TITLE “You Got The Silver”
PERFORMER “The Rolling Stones”
INDEX 01 44:05:12
TRACK 11 AUDIO
TITLE “Before They Make Me Run”
PERFORMER “The Rolling Stones”
INDEX 01 47:23:20

REM GENRE Rock
REM DATE 2013
REM DISCID 680E1408
REM COMMENT “ExactAudioCopy v1.0b3”
PERFORMER “The Rolling Stones”
TITLE “Sweet Summer Sun – Hyde Park Live (CD2)”
FILE “The Rolling Stones – Sweet Summer Sun – Hyde Park Live (CD2).flac” WAVE
TRACK 01 AUDIO
TITLE “Miss You”
PERFORMER “The Rolling Stones”
INDEX 01 00:00:00
TRACK 02 AUDIO
TITLE “Midnight Rambler”
PERFORMER “The Rolling Stones”
INDEX 01 07:52:36
TRACK 03 AUDIO
TITLE “Gimme Shelter”
PERFORMER “The Rolling Stones”
INDEX 01 19:47:33
TRACK 04 AUDIO
TITLE “Junpin’ Jack Flash”
PERFORMER “The Rolling Stones”
INDEX 01 27:03:37
TRACK 05 AUDIO
TITLE “Sympathy For The Devil”
PERFORMER “The Rolling Stones”
INDEX 01 31:57:35
TRACK 06 AUDIO
TITLE “Brown Sugar”
PERFORMER “The Rolling Stones”
INDEX 01 38:44:11
TRACK 07 AUDIO
TITLE “You Can’t Always Get What You Want”
PERFORMER “The Rolling Stones”
INDEX 01 43:39:38
TRACK 08 AUDIO
TITLE “(I Can’t Get No) Satisfaction”
PERFORMER “The Rolling Stones”
INDEX 01 51:44:31


Spread the Download

Leave a Reply

Your email address will not be published. Required fields are marked *

Enter the text from the image below
 

This site uses Akismet to reduce spam. Learn how your comment data is processed.