The Rolling Stones – Sucking In The Seventies




No Cover available

Artist: The Rolling Stones
Year: 1981/1987
Genre: Rock
Notes: Discogs
Add. Notes:
Watch Songs on: YouTube
Cover incl.: Yes
Encoder: FLAC
Bitrate: ~900 kBit/s (44.1 kHz/16 Bit/s)
Log & Cue incl.: Yes/Yes
Size: 283,1 MB
Password: “slam” (without ” “)


All Downloads/Hosters are compatible

Download 1
KatFile.com
Turbobit.net
FileFactory.com
Rapidgator.net
Download 2
KatFile.com
Turbobit.net
FileFactory.com
Rapidgator.net

Tracklist:

1  Shattered  3:45
2  Everything Is Turning To Gold  4:05
3  Hot Stuff  3:30
4  Time Waits For No One  4:25
5  Fool To Cry  4:05
6  Mannish Boy  4:35
7  When The Whip Comes Down (Live Version)  4:25
8  If I Was A Dancer (Dance Pt. 2)  5:50
9  Crazy Mama  4:06
10  Beast Of Burden  3:25

EAC-Log, CUE-Sheed & NFO:

Click to open spoiler
Exact Audio Copy V1.0 beta 3 from 29. August 2011

EAC extraction logfile from 5. March 2013, 13:02

The Rolling Stones / Sucking In The Seventies [CBS]

Used drive : HL-DT-STDVD+-RW GH50N Adapter: 0 ID: 1

Read mode : Secure
Utilize accurate stream : Yes
Defeat audio cache : Yes
Make use of C2 pointers : No

Read offset correction : 667
Overread into Lead-In and Lead-Out : No
Fill up missing offset samples with silence : Yes
Delete leading and trailing silent blocks : No
Null samples used in CRC calculations : Yes
Used interface : Native Win32 interface for Win NT & 2000

Used output format : User Defined Encoder
Selected bitrate : 768 kBit/s
Quality : High
Add ID3 tag : No
Command line compressor : C:\Program Files (x86)\Exact Audio Copy\FLAC\FLAC.EXE
Additional command line options : -V -8 -T “Date=%year%” -T “Genre=%genre%” %source%

TOC of the extracted CD

Track | Start | Length | Start sector | End sector
———————————————————
1 | 0:00.00 | 3:46.65 | 0 | 17014
2 | 3:46.65 | 4:08.00 | 17015 | 35614
3 | 7:54.65 | 3:32.22 | 35615 | 51536
4 | 11:27.12 | 4:27.13 | 51537 | 71574
5 | 15:54.25 | 4:08.50 | 71575 | 90224
6 | 20:03.00 | 4:39.05 | 90225 | 111154
7 | 24:42.05 | 4:27.32 | 111155 | 131211
8 | 29:09.37 | 5:52.50 | 131212 | 157661
9 | 35:02.12 | 4:08.00 | 157662 | 176261
10 | 39:10.12 | 3:27.25 | 176262 | 191811

Range status and errors

Selected range

Filename C:\222\CBS\1981 – Sucking In The Seventies\The Rolling Stones – Sucking In The Seventies [CBS].wav

Peak level 100.0 %
Extraction speed 3.0 X
Range quality 100.0 %
Test CRC B976204B
Copy CRC B976204B
Copy OK

No errors occurred

AccurateRip summary

Track 1 accurately ripped (confidence 8) [6B08901C] (AR v1)
Track 2 accurately ripped (confidence 9) [E6350F72] (AR v1)
Track 3 accurately ripped (confidence 9) [C3AC9423] (AR v1)
Track 4 accurately ripped (confidence 9) [F08CF048] (AR v1)
Track 5 accurately ripped (confidence 9) [F9AB39E7] (AR v1)
Track 6 accurately ripped (confidence 9) [218548A8] (AR v1)
Track 7 accurately ripped (confidence 9) [3F429BAC] (AR v1)
Track 8 accurately ripped (confidence 9) [7D48C456] (AR v1)
Track 9 accurately ripped (confidence 9) [7E8EF386] (AR v1)
Track 10 accurately ripped (confidence 9) [7A3AA830] (AR v1)

All tracks accurately ripped

End of status report

==== Log checksum 43E9C9CEAA67CDBC4012E4D4126852C2449126E60C308B43C57EE20F66010614 ====

REM GENRE Rock
REM DATE 1981
REM DISCID 8409FD0A
REM COMMENT “ExactAudioCopy v1.0b3”
PERFORMER “The Rolling Stones ”
TITLE “Sucking In The Seventies [CBS]”
FILE “The Rolling Stones – Sucking In The Seventies [CBS].flac” WAVE
TRACK 01 AUDIO
TITLE “Shattered”
PERFORMER “The Rolling Stones ”
INDEX 01 00:00:00
TRACK 02 AUDIO
TITLE “Everything Is Turning To Gold”
PERFORMER “The Rolling Stones ”
INDEX 00 03:45:62
INDEX 01 03:46:65
TRACK 03 AUDIO
TITLE “Hot Stuff”
PERFORMER “The Rolling Stones ”
INDEX 00 07:54:00
INDEX 01 07:54:65
TRACK 04 AUDIO
TITLE “Time Waits For No One”
PERFORMER “The Rolling Stones ”
INDEX 00 11:25:50
INDEX 01 11:27:12
TRACK 05 AUDIO
TITLE “Fool To Cry”
PERFORMER “The Rolling Stones ”
INDEX 00 15:53:37
INDEX 01 15:54:25
TRACK 06 AUDIO
TITLE “Mannish Boy”
PERFORMER “The Rolling Stones ”
INDEX 00 20:01:50
INDEX 01 20:03:00
TRACK 07 AUDIO
TITLE “When The Whip Comes Down (Live Version)”
PERFORMER “The Rolling Stones ”
INDEX 00 24:41:37
INDEX 01 24:42:05
TRACK 08 AUDIO
TITLE “If I was A Dancer (Dance PT. 2)”
PERFORMER “The Rolling Stones ”
INDEX 00 29:07:62
INDEX 01 29:09:37
TRACK 09 AUDIO
TITLE “Crazy Mama”
PERFORMER “The Rolling Stones ”
INDEX 00 35:01:00
INDEX 01 35:02:12
TRACK 10 AUDIO
TITLE “Beast Of Burden”
PERFORMER “The Rolling Stones ”
INDEX 00 39:09:25
INDEX 01 39:10:12


Leave a Reply

Your email address will not be published. Required fields are marked *

Enter the text from the image below
 

This site uses Akismet to reduce spam. Learn how your comment data is processed.