The Rolling Stones – Still Life (Japanese Edition)




[Total: 0    Average: 0/5]

Artist: The Rolling Stones
Year: 2014
Genre: Rock
Notes: Discogs
Add. Notes: Japanese Edition
Cover incl.: Yes
Encoder: FLAC
Bitrate: ~900 kBit/s (44.1 kHz/16 Bit/s)
Log & Cue incl.: Yes
Size: 592,49 MB
Password: “slam” (without ” “)


All Downloads/Hosters are compatible

Download 1
Share-online.biz
KatFile.com
Rapidgator.net
Download 2
Share-online.biz
KatFile.com
Rapidgator.net

Tracklist:

1 - Take The 'A' Train (Intro) - 0:26
2 - Under My Thumb - 4:18
3 - Let's Spend The Night Together - 3:50
4 - Shattered - 4:05
5 - Twenty Flight Rock - 1:48
6 - Going To A Go-Go - 3:21
7 - Let Me Go - 3:31
8 - Time Is On My Side - 3:36
9 - Just My Imagination (Running Away With Me) - 5:22
10 - Start Me Up - 4:21
11 - (I Can't Get No) Satisfaction - 4:23
12 - Star Spangled Banner (Outro) - 0:50

EAC-Log, CUE-Sheed & NFO:

Click to open spoiler
Exact Audio Copy V1.0 beta 3 from 29. August 2011

EAC extraction logfile from 26. September 2014, 14:23

The Rolling Stones / Still Life PT-SHM

Used drive : PLEXTOR BD-R PX-B950SA Adapter: 6 ID: 0

Read mode : Secure
Utilize accurate stream : Yes
Defeat audio cache : Yes
Make use of C2 pointers : No

Read offset correction : 6
Overread into Lead-In and Lead-Out : No
Fill up missing offset samples with silence : Yes
Delete leading and trailing silent blocks : No
Null samples used in CRC calculations : Yes
Used interface : Native Win32 interface for Win NT & 2000

Used output format : Internal WAV Routines
Sample format : 44.100 Hz; 16 Bit; Stereo

TOC of the extracted CD

Track | Start | Length | Start sector | End sector
———————————————————
1 | 0:00.00 | 0:27.63 | 0 | 2087
2 | 0:27.63 | 4:18.47 | 2088 | 21484
3 | 4:46.35 | 3:52.05 | 21485 | 38889
4 | 8:38.40 | 4:09.63 | 38890 | 57627
5 | 12:48.28 | 1:51.72 | 57628 | 66024
6 | 14:40.25 | 3:20.45 | 66025 | 81069
7 | 18:00.70 | 3:37.10 | 81070 | 97354
8 | 21:38.05 | 3:39.43 | 97355 | 113822
9 | 25:17.48 | 5:24.37 | 113823 | 138159
10 | 30:42.10 | 4:22.63 | 138160 | 157872
11 | 35:04.73 | 4:26.00 | 157873 | 177822
12 | 39:30.73 | 0:52.55 | 177823 | 181777

Range status and errors

Selected range

Filename C:\Users\Meijin\Desktop\Lossless Galaxy ALLexxess\Rolling Stones\1982 Still Life (Mini LP PT-SHM Universal Japan 2014)\The Rolling Stones – Still Life PT-SHM.wav

Peak level 92.4 %
Extraction speed 6.7 X
Range quality 100.0 %
Test CRC 2D1EE12B
Copy CRC 2D1EE12B
Copy OK

No errors occurred

AccurateRip summary

Track 1 accurately ripped (confidence 1) [943AA41A] (AR v2)
Track 2 accurately ripped (confidence 1) [D15DBB79] (AR v2)
Track 3 accurately ripped (confidence 1) [B2DBA2EF] (AR v2)
Track 4 accurately ripped (confidence 1) [28A71697] (AR v2)
Track 5 accurately ripped (confidence 1) [8A8EED7D] (AR v2)
Track 6 accurately ripped (confidence 1) [5094EF93] (AR v2)
Track 7 accurately ripped (confidence 1) [CFA18301] (AR v2)
Track 8 accurately ripped (confidence 1) [22519750] (AR v2)
Track 9 accurately ripped (confidence 1) [2D19A69B] (AR v2)
Track 10 accurately ripped (confidence 1) [93C554EA] (AR v2)
Track 11 accurately ripped (confidence 1) [7177D680] (AR v2)
Track 12 accurately ripped (confidence 1) [4A9B97A4] (AR v2)

All tracks accurately ripped

End of status report

==== Log checksum 98163CC7856266251EF3D60FA850529DF2A98A1F0AE447071EE200B792A28685 ====

REM GENRE Rock
REM DATE 1998
REM DISCID 8D09770C
REM COMMENT “ExactAudioCopy v1.0b3”
PERFORMER “The Rolling Stones”
TITLE “Still Life PT-SHM”
FILE “The Rolling Stones – Still Life PT-SHM.flac” WAVE
TRACK 01 AUDIO
TITLE “Take The ‘A’ Train (Intro) / Duke Ellington & His Orchestra”
PERFORMER “The Rolling Stones”
INDEX 01 00:00:00
TRACK 02 AUDIO
TITLE “Under My Thumb”
PERFORMER “The Rolling Stones”
INDEX 01 00:27:63
TRACK 03 AUDIO
TITLE “Let’s Spend The Night Together”
PERFORMER “The Rolling Stones”
INDEX 01 04:46:35
TRACK 04 AUDIO
TITLE “Shattered”
PERFORMER “The Rolling Stones”
INDEX 01 08:38:40
TRACK 05 AUDIO
TITLE “Twenty Flight Rock”
PERFORMER “The Rolling Stones”
INDEX 01 12:48:28
TRACK 06 AUDIO
TITLE “Going To A Go-Go”
PERFORMER “The Rolling Stones”
INDEX 01 14:40:25
TRACK 07 AUDIO
TITLE “Let Me Go”
PERFORMER “The Rolling Stones”
INDEX 01 18:00:70
TRACK 08 AUDIO
TITLE “Time Is On My Side”
PERFORMER “The Rolling Stones”
INDEX 01 21:38:05
TRACK 09 AUDIO
TITLE “Just My Imagination (Running Away With Me)”
PERFORMER “The Rolling Stones”
INDEX 01 25:17:48
TRACK 10 AUDIO
TITLE “Start Me Up”
PERFORMER “The Rolling Stones”
INDEX 01 30:42:10
TRACK 11 AUDIO
TITLE “(I Can’t Get No) Satisfaction”
PERFORMER “The Rolling Stones”
INDEX 01 35:04:73
TRACK 12 AUDIO
TITLE “Star Spangled Banner (Outro) / Jimi Hendrix”
PERFORMER “The Rolling Stones”
INDEX 01 39:30:73


Spread the Download

Leave a Reply

Your email address will not be published. Required fields are marked *

Enter the text from the image below
 

This site uses Akismet to reduce spam. Learn how your comment data is processed.