The Rolling Stones – Still Life (American Concert 1981) (Japanese Edition)




Artist: The Rolling Stones
Year: 1982/1999
Genre: Rock
Notes: Discogs
Add. Notes: Japanese Edition
Cover incl.: Yes
Encoder: FLAC
Bitrate: ~1000 kBit/s (44.1 kHz/16 Bit/s)
Log & Cue incl.: Yes
Size: 289,7 MB
Password: “slam” (without ” “)


All Downloads/Hosters are compatible

Download 1
KatFile.com
Rapidgator.net
NitroFlare.com
Turbobit.net
Download 2
KatFile.com
Rapidgator.net
NitroFlare.com
Turbobit.net
Download 3
KatFile.com
Rapidgator.net
NitroFlare.com
Turbobit.net

Tracklist:

1 - Intro: Take The A Train - 0:27
2 - Under My Thumb - 4:01
3 - Let's Spend The Night Together - 3:51
4 - Shattered - 4:05
5 - Twenty Flight Rock - 1:48
6 - Going To A Go Go - 3:01
7 - Let Me Go - 3:32
8 - Time Is On My Side - 3:38
9 - Just My Imagination (Running Away With Me) - 5:12
10 - Start Me Up - 3:59
11 - (I Can't Get No) Satisfaction - 4:14
12 - Outro: Star Spangled Banner - 0:44

EAC-Log, CUE-Sheed & NFO:

Click to open spoiler
Exact Audio Copy V0.99 prebeta 4 from 23. January 2008

Отчёт EAC об извлечении, выполненном 23. октября 2009, 0:40

The Rolling Stones / Still Life (American Concert 1981)

Дисковод: Optiarc DVD RW AD-7203S Adapter: 1 ID: 1

Режим чтения : Достоверность
Использование точного потока : Да
Отключение кэша аудио : Да
Использование указателей C2 : Нет

Коррекция смещения при чтении : 48
Способность читать области Lead-in и Lead-out : Нет
Заполнение пропущенных сэмплов тишиной : Да
Удаление блоков с тишиной в начале и конце : Нет
При вычислениях CRC использовались нулевые сэмплы : Да
Интерфейс : Встроенный Win32-интерфейс для Win NT/2000

Выходной формат : Пользовательский кодировщик
Выбранный битрейт : 1024 kBit/s
Качество : Высокий
Добавление ID3-тэга : Нет
Утилита сжатия : C:\Program Files\Exact Audio Copy\Flac\flac.exe
Дополнительные параметры : -V -8 -T “artist=%a” -T “title=%t” -T “album=%g” -T “date=%y” -T “tracknumber=%n” -T “genre=%m” %s

TOC извлечённого CD

Трек | Старт | Длительность | Начальный сектор | Конечный сектор
———————————————————————
1 | 0:00.00 | 0:26.67 | 0 | 2016
2 | 0:26.67 | 4:18.43 | 2017 | 21409
3 | 4:45.35 | 3:51.17 | 21410 | 38751
4 | 8:36.52 | 4:10.53 | 38752 | 57554
5 | 12:47.30 | 1:47.35 | 57555 | 65614
6 | 14:34.65 | 3:22.50 | 65615 | 80814
7 | 17:57.40 | 3:36.50 | 80815 | 97064
8 | 21:34.15 | 3:38.40 | 97065 | 113454
9 | 25:12.55 | 5:22.45 | 113455 | 137649
10 | 30:35.25 | 4:21.40 | 137650 | 157264
11 | 34:56.65 | 4:23.62 | 157265 | 177051
12 | 39:20.52 | 0:48.18 | 177052 | 180669

Характеристики диапазона извлечения и сообщения об ошибках

Выбранный диапазон

Имя файла D:\EAC-FOLDER\1982-The Rolling Stones – Still Life\The Rolling Stones – Still Life (American Concert 1981)\The Rolling Stones – Still Life (American Concert 1981).wav

Пиковый уровень 98.8 %
Качество диапазона 100.0 %
CRC теста 3E88A2EC
CRC копии 3E88A2EC
Копирование… OK

Ошибок не произошло

AccurateRip: сводка

Трек 1 точность не определена (достоверность 38) [389D8A32], AccurateRip вернул [5E27C805]
Трек 2 точность не определена (достоверность 38) [7C2863CF], AccurateRip вернул [9404C4AC]
Трек 3 точность не определена (достоверность 38) [A56B28A8], AccurateRip вернул [74BFEC73]
Трек 4 точность не определена (достоверность 37) [3439A39C], AccurateRip вернул [E58121B1]
Трек 5 точность не определена (достоверность 38) [A3B10A14], AccurateRip вернул [8865CA97]
Трек 6 точность не определена (достоверность 38) [BCDA7FE1], AccurateRip вернул [2DA0F7CA]
Трек 7 точность не определена (достоверность 38) [C04A524A], AccurateRip вернул [CE43C068]
Трек 8 точность не определена (достоверность 38) [F6E6403B], AccurateRip вернул [C5405087]
Трек 9 точность не определена (достоверность 38) [13BB0A91], AccurateRip вернул [C171FAC3]
Трек 10 точность не определена (достоверность 38) [12156011], AccurateRip вернул [315FEBEB]
Трек 11 точность не определена (достоверность 38) [F53C720A], AccurateRip вернул [90E4230A]
Трек 12 точность не определена (достоверность 37) [D0698D52], AccurateRip вернул [1BE054C7]

Ни один трек не прошёл проверки на точность
В вашей базе может быть иной вариант штамповки диска

Конец отчёта

REM GENRE Rock
REM DATE 1982
REM DISCID B709680C
REM COMMENT “ExactAudioCopy v0.99pb4”
PERFORMER “The Rolling Stones”
TITLE “Still Life (American Concert 1981)”
FILE “The Rolling Stones – Still Life (American Concert 1981).flac” WAVE
TRACK 01 AUDIO
TITLE “Intro: Take The A Train (Performed by Duke Ellington and His Orch.)”
PERFORMER “The Rolling Stones”
INDEX 01 00:00:00
TRACK 02 AUDIO
TITLE “Under My Thumb”
PERFORMER “The Rolling Stones”
INDEX 01 00:26:67
TRACK 03 AUDIO
TITLE “Let’s Spend The Night Together”
PERFORMER “The Rolling Stones”
INDEX 01 04:45:35
TRACK 04 AUDIO
TITLE “Shattered”
PERFORMER “The Rolling Stones”
INDEX 01 08:36:52
TRACK 05 AUDIO
TITLE “Twenty Flight Rock”
PERFORMER “The Rolling Stones”
INDEX 01 12:47:30
TRACK 06 AUDIO
TITLE “Going To A Go-Go”
PERFORMER “The Rolling Stones”
INDEX 01 14:34:65
TRACK 07 AUDIO
TITLE “Let Me Go”
PERFORMER “The Rolling Stones”
INDEX 00 17:56:32
INDEX 01 17:57:40
TRACK 08 AUDIO
TITLE “Time Is On My Side”
PERFORMER “The Rolling Stones”
INDEX 01 21:34:15
TRACK 09 AUDIO
TITLE “Just My Imagination (Running Away With Me)”
PERFORMER “The Rolling Stones”
INDEX 01 25:12:55
TRACK 10 AUDIO
TITLE “Start Me Up”
PERFORMER “The Rolling Stones”
INDEX 01 30:35:25
TRACK 11 AUDIO
TITLE “(I Can’t Get No) Satisfaction”
PERFORMER “The Rolling Stones”
INDEX 01 34:56:65
TRACK 12 AUDIO
TITLE “Outro: The Star Spangled Banner (Trad: This Version Arranged And Performed by…”
PERFORMER “The Rolling Stones”
INDEX 01 39:20:52


Leave a Reply

Your email address will not be published. Required fields are marked *

Enter the text from the image below
 

This site uses Akismet to reduce spam. Learn how your comment data is processed.