The Rolling Stones – Sticky Fingers (Remastered)




[Total: 0    Average: 0/5]

Artist: The Rolling Stones
Year: 1971/1994
Genre: Rock
Notes: Discogs
Add. Notes: Remastered
Cover incl.: Yes
Encoder: FLAC
Bitrate: ~800 kBit/s (44.1 kHz/16 Bit/s)
Log & Cue incl.: Yes
Size: 321,02 MB
Password: “slam” (without ” “)


All Downloads/Hosters are compatible

Download 1
Share-online.biz
KatFile.com
Rapidgator.net
NitroFlare.com
Download 2
Share-online.biz
KatFile.com
Rapidgator.net
NitroFlare.com

Tracklist:

1 - Brown Sugar - 3:50
2 - Sway - 3:53
3 - Wild Horses - 5:44
4 - Can't You Hear Me Knocking - 7:16
5 - You Gotta Move - 2:34
6 - Bitch - 3:38
7 - I Got The Blues - 3:55
8 - Sister Morphine - 5:35
9 - Dead Flowers - 4:05
10 - Moonlight Mile - 5:56

EAC-Log, CUE-Sheed & NFO:

Click to open spoiler
Exact Audio Copy V1.0 beta 3 from 29. August 2011

EAC extraction logfile from 17. March 2013, 11:52

The Rolling Stones / Sticky Fingers (Virgin CDV 2730)

Used drive : PLEXTOR DVDR PX-891SA Adapter: 1 ID: 0

Read mode : Secure
Utilize accurate stream : Yes
Defeat audio cache : Yes
Make use of C2 pointers : No

Read offset correction : 6
Overread into Lead-In and Lead-Out : No
Fill up missing offset samples with silence : Yes
Delete leading and trailing silent blocks : No
Null samples used in CRC calculations : Yes
Used interface : Native Win32 interface for Win NT & 2000

Used output format : User Defined Encoder
Selected bitrate : 1024 kBit/s
Quality : High
Add ID3 tag : No
Command line compressor : C:\Program Files\Exact Audio Copy\Flac\flac.exe
Additional command line options : -V -8 -T “Genre=%genre%” -T “Artist=%artist%” -T “Title=%title%” -T “Album=%albumtitle%” -T “Date=%year%” -T “Tracknumber=%tracknr%” -T “Comment=%comment%” %source%

TOC of the extracted CD

Track | Start | Length | Start sector | End sector
———————————————————
1 | 0:00.00 | 3:49.57 | 0 | 17231
2 | 3:49.57 | 3:52.65 | 17232 | 34696
3 | 7:42.47 | 5:44.08 | 34697 | 60504
4 | 13:26.55 | 7:15.47 | 60505 | 93176
5 | 20:42.27 | 2:34.13 | 93177 | 104739
6 | 23:16.40 | 3:37.42 | 104740 | 121056
7 | 26:54.07 | 3:54.63 | 121057 | 138669
8 | 30:48.70 | 5:34.65 | 138670 | 163784
9 | 36:23.60 | 4:05.12 | 163785 | 182171
10 | 40:28.72 | 5:56.30 | 182172 | 208901

Range status and errors

Selected range

Filename H:\dafnaplus\1971 Sticky Fingers [Virgin CDV 2730]\The Rolling Stones – Sticky Fingers (Virgin CDV 2730).wav

Peak level 100.0 %
Extraction speed 7.7 X
Range quality 100.0 %
Test CRC F23FD6B7
Copy CRC F23FD6B7
Copy OK

No errors occurred

AccurateRip summary

Track 1 accurately ripped (confidence 33) [FE91381B] (AR v2)
Track 2 accurately ripped (confidence 33) [17769EBD] (AR v2)
Track 3 accurately ripped (confidence 33) [F115C005] (AR v2)
Track 4 accurately ripped (confidence 33) [439B5A88] (AR v2)
Track 5 accurately ripped (confidence 32) [F38B9CB1] (AR v2)
Track 6 accurately ripped (confidence 33) [517E7C3D] (AR v2)
Track 7 accurately ripped (confidence 33) [74B3BDC6] (AR v2)
Track 8 accurately ripped (confidence 32) [8E412B91] (AR v2)
Track 9 accurately ripped (confidence 32) [2AEA35AD] (AR v2)
Track 10 accurately ripped (confidence 30) [2A25F1F9] (AR v2)

All tracks accurately ripped

End of status report

==== Log checksum EFFF0CB3D09B7D89C704F40A65C1E58491B54ADA7B5DC53A8D487D9DA1F87A44 ====

REM GENRE Rock
REM DATE 1994
REM DISCID 7B0AE10A
REM COMMENT “ExactAudioCopy v1.0b3”
PERFORMER “The Rolling Stones”
TITLE “Sticky Fingers (Virgin CDV 2730)”
FILE “The Rolling Stones – Sticky Fingers (Virgin CDV 2730).flac” WAVE
TRACK 01 AUDIO
TITLE “Brown Sugar”
PERFORMER “The Rolling Stones”
INDEX 01 00:00:00
TRACK 02 AUDIO
TITLE “Sway”
PERFORMER “The Rolling Stones”
INDEX 01 03:49:57
TRACK 03 AUDIO
TITLE “Wild Horses”
PERFORMER “The Rolling Stones”
INDEX 00 07:41:12
INDEX 01 07:42:47
TRACK 04 AUDIO
TITLE “Can’t You Hear Me Knocking”
PERFORMER “The Rolling Stones”
INDEX 00 13:24:62
INDEX 01 13:26:55
TRACK 05 AUDIO
TITLE “You Gotta Move”
PERFORMER “The Rolling Stones”
INDEX 01 20:42:27
TRACK 06 AUDIO
TITLE “Bitch”
PERFORMER “The Rolling Stones”
INDEX 00 23:14:60
INDEX 01 23:16:40
TRACK 07 AUDIO
TITLE “I Got The Blues”
PERFORMER “The Rolling Stones”
INDEX 00 26:52:47
INDEX 01 26:54:07
TRACK 08 AUDIO
TITLE “Sister Morphine”
PERFORMER “The Rolling Stones”
INDEX 00 30:46:57
INDEX 01 30:48:70
TRACK 09 AUDIO
TITLE “Dead Flowers”
PERFORMER “The Rolling Stones”
INDEX 00 36:19:62
INDEX 01 36:23:60
TRACK 10 AUDIO
TITLE “Moonlight Mile”
PERFORMER “The Rolling Stones”
INDEX 00 40:26:72
INDEX 01 40:28:72


Spread the Download

Leave a Reply

Your email address will not be published. Required fields are marked *

Enter the text from the image below
 

This site uses Akismet to reduce spam. Learn how your comment data is processed.