The Rolling Stones – Sticky Fingers Live At The Fonda Theatre 2015




Artist: The Rolling Stones
Year: 2017
Genre: Rock
Notes: Discogs
Add. Notes:
Cover incl.: Yes
Encoder: FLAC
Bitrate: ~1000 kBit/s (44.1 kHz/16 Bit/s)
Log & Cue incl.: Yes
Size: 601,09 MB
Password: “slam” (without ” “)


All Downloads/Hosters are compatible

Download 1
Turbobit.net
NitroFlare.com
KatFile.com
Rapidgator.net
Download 2
Turbobit.net
NitroFlare.com
KatFile.com
Rapidgator.net

Tracklist:

1. Start Me Up 
2. When The Whip Comes Down 
3. All Down The Line 
4. Sway 
5. Dead Flowers 
6. Wild Horses
7. Sister Morphine
8. You Gotta Move
9. Bitch
10. Can't You Hear Me Knocking
11. I Got The Blues
12. Moonlight Mile
13. Brown Sugar
14. Rock Me Baby
15. Jumpin' Jack Flash
16. I Can't Turn You Loose

EAC-Log, CUE-Sheed & NFO:

Click to open spoiler
Exact Audio Copy V1.3 from 2. September 2016

EAC extraction logfile from 30. September 2017, 12:25

The Rolling Stones / Sticky Fingers Live At The Fonda Theatre

Used drive : ASUS SDRW-08D2S-U Adapter: 1 ID: 0

Read mode : Secure
Utilize accurate stream : Yes
Defeat audio cache : Yes
Make use of C2 pointers : No

Read offset correction : 6
Overread into Lead-In and Lead-Out : No
Fill up missing offset samples with silence : Yes
Delete leading and trailing silent blocks : No
Null samples used in CRC calculations : Yes
Used interface : Native Win32 interface for Win NT & 2000

Used output format : User Defined Encoder
Selected bitrate : 768 kBit/s
Quality : High
Add ID3 tag : No
Command line compressor : C:\Program Files (x86)\Exact Audio Copy\FLAC\FLAC.EXE
Additional command line options : -V -8 -T “Date=%year%” -T “Genre=%genre%” %source%

TOC of the extracted CD

Track | Start | Length | Start sector | End sector
———————————————————
1 | 0:00.00 | 4:34.37 | 0 | 20586
2 | 4:34.37 | 4:10.29 | 20587 | 39365
3 | 8:44.66 | 4:57.11 | 39366 | 61651
4 | 13:42.02 | 3:31.23 | 61652 | 77499
5 | 17:13.25 | 4:14.44 | 77500 | 96593
6 | 21:27.69 | 4:40.63 | 96594 | 117656
7 | 26:08.57 | 5:56.41 | 117657 | 144397
8 | 32:05.23 | 3:36.46 | 144398 | 160643
9 | 35:41.69 | 4:27.19 | 160644 | 180687
10 | 40:09.13 | 7:21.11 | 180688 | 213773
11 | 47:30.24 | 4:29.51 | 213774 | 233999
12 | 52:00.00 | 4:41.17 | 234000 | 255091
13 | 56:41.17 | 8:10.72 | 255092 | 291913
14 | 64:52.14 | 4:31.36 | 291914 | 312274
15 | 69:23.50 | 4:47.33 | 312275 | 333832
16 | 74:11.08 | 5:24.50 | 333833 | 358182

Range status and errors

Selected range

Filename D:\222\2017 – The Rolling Stones – Sticky Fingers Live 2015\CD\The Rolling Stones – Sticky Fingers Live At The Fonda Theatre.wav

Peak level 100.0 %
Extraction speed 5.0 X
Range quality 99.9 %
Test CRC D2CFE3FB
Copy CRC D2CFE3FB
Copy OK

No errors occurred

AccurateRip summary

Track 1 not present in database
Track 2 not present in database
Track 3 not present in database
Track 4 not present in database
Track 5 not present in database
Track 6 not present in database
Track 7 not present in database
Track 8 not present in database
Track 9 not present in database
Track 10 not present in database
Track 11 not present in database
Track 12 not present in database
Track 13 not present in database
Track 14 not present in database
Track 15 not present in database
Track 16 not present in database

None of the tracks are present in the AccurateRip database

End of status report

==== Log checksum 05D8B8608FB016D12051E6D00CA8B8A7B7BCC697CC876DC5D564E449A3492E15 ====

^REM DISCID D612A710
REM COMMENT “ExactAudioCopy v1.3”
PERFORMER “The Rolling Stones”
TITLE “Sticky Fingers Live At The Fonda Theatre”
REM COMPOSER “”
FILE “The Rolling Stones – Sticky Fingers Live At The Fonda Theatre.flac” WAVE
TRACK 01 AUDIO
TITLE “Start Me Up”
PERFORMER “The Rolling Stones”
REM COMPOSER “”
INDEX 01 00:00:00
TRACK 02 AUDIO
TITLE “When The Whip Comes Down”
PERFORMER “The Rolling Stones”
REM COMPOSER “”
INDEX 01 04:34:37
TRACK 03 AUDIO
TITLE “All Down The Line”
PERFORMER “The Rolling Stones”
REM COMPOSER “”
INDEX 01 08:44:66
TRACK 04 AUDIO
TITLE “Sway”
PERFORMER “The Rolling Stones”
REM COMPOSER “”
INDEX 01 13:42:02
TRACK 05 AUDIO
TITLE “Dead Flowers”
PERFORMER “The Rolling Stones”
REM COMPOSER “”
INDEX 01 17:13:25
TRACK 06 AUDIO
TITLE “Wild Horses”
PERFORMER “The Rolling Stones”
REM COMPOSER “”
INDEX 01 21:27:69
TRACK 07 AUDIO
TITLE “Sister Morphine”
PERFORMER “The Rolling Stones”
REM COMPOSER “”
INDEX 01 26:08:57
TRACK 08 AUDIO
TITLE “You Gotta Move”
PERFORMER “The Rolling Stones”
REM COMPOSER “”
INDEX 01 32:05:23
TRACK 09 AUDIO
TITLE “Bitch”
PERFORMER “The Rolling Stones”
REM COMPOSER “”
INDEX 01 35:41:69
TRACK 10 AUDIO
TITLE “Can’t You Hear Me Knocking”
PERFORMER “The Rolling Stones”
REM COMPOSER “”
INDEX 01 40:09:13
TRACK 11 AUDIO
TITLE “I Got The Blues”
PERFORMER “The Rolling Stones”
REM COMPOSER “”
INDEX 01 47:30:24
TRACK 12 AUDIO
TITLE “Moonlight Mile”
PERFORMER “The Rolling Stones”
REM COMPOSER “”
INDEX 01 52:00:00
TRACK 13 AUDIO
TITLE “Brown Sugar”
PERFORMER “The Rolling Stones”
REM COMPOSER “”
INDEX 01 56:41:17
TRACK 14 AUDIO
TITLE “Rock Me Baby”
PERFORMER “The Rolling Stones”
REM COMPOSER “”
INDEX 01 64:52:14
TRACK 15 AUDIO
TITLE “Jumpin’ Jack Flash”
PERFORMER “The Rolling Stones”
REM COMPOSER “”
INDEX 01 69:23:50
TRACK 16 AUDIO
TITLE “I Can’t Turn You Loose”
PERFORMER “The Rolling Stones”
REM COMPOSER “”
INDEX 01 74:11:08


Leave a Reply

Your email address will not be published. Required fields are marked *

This site uses Akismet to reduce spam. Learn how your comment data is processed.