The Rolling Stones – Steel Wheels (Remastered)




Artist: The Rolling Stones
Year: 1989/2009
Genre: Rock
Notes: Discogs
Add. Notes: Remastered
Cover incl.: Yes
Encoder: FLAC
Bitrate: ~900 kBit/s (44.1 kHz/16 Bit/s)
Log & Cue incl.: Yes
Size: 376,99 MB
Password: “slam” (without ” “)


All Downloads/Hosters are compatible

Download 1
Turbobit.net
KatFile.com
Rapidgator.net
Download 2
Turbobit.net
KatFile.com
Rapidgator.net

Tracklist:

1 - Sad Sad Sad - 3:35
2 - Mixed Emotions - 4:38
3 - Terrifying - 4:57
4 - Hold On To Your Hat - 3:32
5 - Hearts For Sale - 4:40
6 - Blinded By Love - 4:36
7 - Rock And A Hard Place - 5:25
8 - Can't Be Seen - 4:09
9 - Almost Hear You Sigh - 4:36
10 - Continental Drift - 5:13
11 - Break The Spell - 3:06
12 - Slipping Away - 4:29

EAC-Log, CUE-Sheed & NFO:

Click to open spoiler
Exact Audio Copy V1.0 beta 3 from 29. August 2011

Отчёт EAC об извлечении, выполненном 11. мая 2015, 19:48

Rolling Stones / Steel Wheels

Дисковод: ATAPI iHES108 2 Adapter: 3 ID: 1

Режим чтения : Достоверность
Использование точного потока : Да
Отключение кэша аудио : Да
Использование указателей C2 : Нет

Коррекция смещения при чтении : 6
Способность читать области Lead-in и Lead-out : Нет
Заполнение пропущенных сэмплов тишиной : Да
Удаление блоков с тишиной в начале и конце : Нет
При вычислениях CRC использовались нулевые сэмплы : Да
Интерфейс : Встроенный Win32-интерфейс для Win NT/2000

Выходной формат : Пользовательский кодировщик
Выбранный битрейт : 1024 kBit/s
Качество : Высокий
Добавление ID3-тега : Нет
Утилита сжатия : C:\Program Files\Exact Audio Copy\Flac\flac.exe
Дополнительные параметры : -V -8 -T “Date=%year%” -T “Genre=%genre%” %source%

TOC извлечённого CD

Трек | Старт | Длительность | Начальный сектор | Конечный сектор
———————————————————————
1 | 0:00.00 | 3:35.52 | 0 | 16176
2 | 3:35.52 | 4:38.45 | 16177 | 37071
3 | 8:14.22 | 4:53.63 | 37072 | 59109
4 | 13:08.10 | 3:32.27 | 59110 | 75036
5 | 16:40.37 | 4:40.70 | 75037 | 96106
6 | 21:21.32 | 4:36.73 | 96107 | 116879
7 | 25:58.30 | 5:25.17 | 116880 | 141271
8 | 31:23.47 | 4:10.15 | 141272 | 160036
9 | 35:33.62 | 4:37.35 | 160037 | 180846
10 | 40:11.22 | 5:14.40 | 180847 | 204436
11 | 45:25.62 | 3:07.35 | 204437 | 218496
12 | 48:33.22 | 4:30.15 | 218497 | 238761

Характеристики диапазона извлечения и сообщения об ошибках

Выбранный диапазон

Имя файла D:\EAC-FOLDER\!!!RS_2009\Rolling Stones – Steel Wheels\Rolling Stones – Steel Wheels_2009\Rolling Stones – Steel Wheels.wav

Пиковый уровень 98.7 %
Скорость извлечения 4.5 X
Качество диапазона 100.0 %
CRC теста EA44A9C3
CRC копии EA44A9C3
Копирование… OK

Ошибок не произошло

AccurateRip: сводка

Трек 1 : извлечено точно (доверие 88) [D6D22823] (AR v2)
Трек 2 : извлечено точно (доверие 88) [F8B97FE3] (AR v2)
Трек 3 : извлечено точно (доверие 88) [A9A244EA] (AR v2)
Трек 4 : извлечено точно (доверие 89) [2C9BB32B] (AR v2)
Трек 5 : извлечено точно (доверие 89) [28CAF2B5] (AR v2)
Трек 6 : извлечено точно (доверие 89) [9704089D] (AR v2)
Трек 7 : извлечено точно (доверие 89) [AC3318F7] (AR v2)
Трек 8 : извлечено точно (доверие 89) [2E00D593] (AR v2)
Трек 9 : извлечено точно (доверие 89) [D22AEE71] (AR v2)
Трек 10 : извлечено точно (доверие 89) [6D3B6FF6] (AR v2)
Трек 11 : извлечено точно (доверие 88) [18C1D725] (AR v2)
Трек 12 : извлечено точно (доверие 89) [6EE63469] (AR v2)

Все треки извлечены точно

Конец отчёта

==== Контрольная сумма отчёта E8D7C9A7B4E0114FFE1878CBA3DFD02179CD6F81351E9CCC4D311CA89BC45C97 ====

REM GENRE “Classic Rock”
REM DATE 1989
REM DISCID 9A0C6F0C
REM COMMENT “ExactAudioCopy v1.0b3”
CATALOG 0602527015675
PERFORMER “Rolling Stones”
TITLE “Steel Wheels”
FILE “Rolling Stones – Steel Wheels.flac” WAVE
TRACK 01 AUDIO
TITLE “Sad Sad Sad”
PERFORMER “Rolling Stones”
ISRC TbCJN8900001
INDEX 01 00:00:00
TRACK 02 AUDIO
TITLE “Mixed Emotions”
PERFORMER “Rolling Stones”
ISRC TbCJN8900002
INDEX 01 03:35:52
TRACK 03 AUDIO
TITLE “Terrifying”
PERFORMER “Rolling Stones”
ISRC TbCJN8900003
INDEX 00 08:13:60
INDEX 01 08:14:22
TRACK 04 AUDIO
TITLE “Hold On To Your Hat”
PERFORMER “Rolling Stones”
ISRC TbCJN8900004
INDEX 00 13:07:37
INDEX 01 13:08:10
TRACK 05 AUDIO
TITLE “Hearts For Sale”
PERFORMER “Rolling Stones”
ISRC TbCJN8900005
INDEX 01 16:40:37
TRACK 06 AUDIO
TITLE “Blinded By Love”
PERFORMER “Rolling Stones”
ISRC TbCJN8900006
INDEX 01 21:21:32
TRACK 07 AUDIO
TITLE “Rock And A Hard Place”
PERFORMER “Rolling Stones”
ISRC TbCJN8900007
INDEX 01 25:58:30
TRACK 08 AUDIO
TITLE “Can’t Be Seen”
PERFORMER “Rolling Stones”
ISRC TbCJN8900008
INDEX 00 31:22:67
INDEX 01 31:23:47
TRACK 09 AUDIO
TITLE “Almost Hear You Sigh”
PERFORMER “Rolling Stones”
ISRC TbCJN8900009
INDEX 00 35:33:42
INDEX 01 35:33:62
TRACK 10 AUDIO
TITLE “Continental Drift”
PERFORMER “Rolling Stones”
ISRC TbCJN8900010
INDEX 01 40:11:22
TRACK 11 AUDIO
TITLE “Break The Spell”
PERFORMER “Rolling Stones”
ISRC TbCJN8900011
INDEX 00 45:25:42
INDEX 01 45:25:62
TRACK 12 AUDIO
TITLE “Slipping Away”
PERFORMER “Rolling Stones”
ISRC TbCJN8900012
INDEX 00 48:32:52
INDEX 01 48:33:22


Leave a Reply

Your email address will not be published. Required fields are marked *

Enter the text from the image below
 

This site uses Akismet to reduce spam. Learn how your comment data is processed.