The Rolling Stones – Star Box (Japanese Edition)




Artist: The Rolling Stones
Year: 1989
Genre: Rock
Notes: Discogs
Add. Notes: Japanese Edition
Cover incl.: Yes
Encoder: FLAC
Bitrate: ~900 kBit/s (44.1 kHz/16 Bit/s)
Log & Cue incl.: Yes
Size: 483,35 MB
Password: “slam” (without ” “)


All Downloads/Hosters are compatible

Download 1
Turbobit.net
NitroFlare.com
KatFile.com
Rapidgator.net
Download 2
Turbobit.net
NitroFlare.com
KatFile.com
Rapidgator.net

Tracklist:

1 - Brown Sugar - 3:50
2 - Tumbling Dice - 3:42
3 - Angie - 4:32
4 - It's Only Rock'n Roll (But I Like It) - 5:08
5 - Fool To Cry - 5:04
6 - Miss You - 4:47
7 - She's So Cold - 4:12
8 - Start Me Up - 3:33
9 - Undercover Of The Night - 4:33
10 - Harlem Shuffle - 3:23
11 - Bitch - 3:36
12 - Happy - 3:01
13 - Hot Stuff - 5:22
14 - All About You - 4:19
15 - One Hit (To The Body) - 4:44
16 - Honky Tonk Women - 3:22
17 - Jumping Jack Flash - 3:31

EAC-Log, CUE-Sheed & NFO:

Click to open spoiler
Exact Audio Copy V1.0 beta 3 from 29. August 2011

EAC extraction logfile from 11. July 2013, 14:26

The Rolling Stones / Star Box

Used drive : HL-DT-STDVD+-RW GH50N Adapter: 0 ID: 1

Read mode : Secure
Utilize accurate stream : Yes
Defeat audio cache : Yes
Make use of C2 pointers : No

Read offset correction : 667
Overread into Lead-In and Lead-Out : No
Fill up missing offset samples with silence : Yes
Delete leading and trailing silent blocks : No
Null samples used in CRC calculations : Yes
Used interface : Native Win32 interface for Win NT & 2000

Used output format : User Defined Encoder
Selected bitrate : 768 kBit/s
Quality : High
Add ID3 tag : No
Command line compressor : C:\Program Files (x86)\Exact Audio Copy\FLAC\FLAC.EXE
Additional command line options : -V -8 -T “Date=%year%” -T “Genre=%genre%” %source%

TOC of the extracted CD

Track | Start | Length | Start sector | End sector
———————————————————
1 | 0:00.37 | 3:52.33 | 37 | 17469
2 | 3:52.70 | 3:44.17 | 17470 | 34286
3 | 7:37.12 | 4:34.00 | 34287 | 54836
4 | 12:11.12 | 5:09.63 | 54837 | 78074
5 | 17:21.00 | 5:05.62 | 78075 | 101011
6 | 22:26.62 | 4:48.63 | 101012 | 122674
7 | 27:15.50 | 4:14.25 | 122675 | 141749
8 | 31:30.00 | 3:34.50 | 141750 | 157849
9 | 35:04.50 | 4:34.62 | 157850 | 178461
10 | 39:39.37 | 3:25.25 | 178462 | 193861
11 | 43:04.62 | 3:37.63 | 193862 | 210199
12 | 46:42.50 | 3:02.62 | 210200 | 223911
13 | 49:45.37 | 5:23.63 | 223912 | 248199
14 | 55:09.25 | 4:20.37 | 248200 | 267736
15 | 59:29.62 | 4:46.25 | 267737 | 289211
16 | 64:16.12 | 3:23.38 | 289212 | 304474
17 | 67:39.50 | 3:31.37 | 304475 | 320336

Range status and errors

Selected range

Filename C:\222\RUTRA1\Add\1989 – Star Box\The Rolling Stones – Star Box.wav

Peak level 100.0 %
Extraction speed 3.3 X
Range quality 99.9 %
Test CRC DE2A711E
Copy CRC DE2A711E
Copy OK

No errors occurred

AccurateRip summary

Track 1 accurately ripped (confidence 2) [EEEC36D8] (AR v2)
Track 2 accurately ripped (confidence 2) [668399EE] (AR v2)
Track 3 accurately ripped (confidence 2) [E03C826D] (AR v2)
Track 4 accurately ripped (confidence 2) [5782E885] (AR v2)
Track 5 accurately ripped (confidence 2) [A2424C52] (AR v2)
Track 6 accurately ripped (confidence 2) [CA8337EE] (AR v2)
Track 7 accurately ripped (confidence 2) [39522B2E] (AR v2)
Track 8 accurately ripped (confidence 2) [C3C59012] (AR v2)
Track 9 accurately ripped (confidence 2) [6C033BB5] (AR v2)
Track 10 accurately ripped (confidence 2) [BD51B51F] (AR v2)
Track 11 accurately ripped (confidence 2) [1D2D0D80] (AR v2)
Track 12 accurately ripped (confidence 2) [98DF98BE] (AR v2)
Track 13 accurately ripped (confidence 2) [98673CBC] (AR v2)
Track 14 accurately ripped (confidence 2) [9C2A20E2] (AR v2)
Track 15 accurately ripped (confidence 2) [83C90F85] (AR v2)
Track 16 accurately ripped (confidence 2) [058D1749] (AR v2)
Track 17 accurately ripped (confidence 2) [53A6009B] (AR v2)

All tracks accurately ripped

End of status report

==== Log checksum 73786DE084224268CF43495E56FF1C6F39311AB30E42B683273FC250E1CE49A0 ====

REM GENRE Rock
REM DATE 1989
REM DISCID F610AF11
REM COMMENT “ExactAudioCopy v1.0b3”
CATALOG 0000000000000
PERFORMER “The Rolling Stones”
TITLE “Star Box”
FILE “The Rolling Stones – Star Box.flac” WAVE
TRACK 01 AUDIO
TITLE “Brown Sugar”
PERFORMER “The Rolling Stones”
INDEX 00 00:00:00
INDEX 01 00:00:37
TRACK 02 AUDIO
TITLE “Tumbling Dice”
PERFORMER “The Rolling Stones”
INDEX 00 03:51:33
INDEX 01 03:52:70
TRACK 03 AUDIO
TITLE “Angie”
PERFORMER “The Rolling Stones”
INDEX 00 07:35:52
INDEX 01 07:37:12
TRACK 04 AUDIO
TITLE “It’s Only Rock’n Roll (But I Like It)”
PERFORMER “The Rolling Stones”
INDEX 00 12:09:52
INDEX 01 12:11:12
TRACK 05 AUDIO
TITLE “Fool To Cry”
PERFORMER “The Rolling Stones”
INDEX 00 17:19:38
INDEX 01 17:21:00
TRACK 06 AUDIO
TITLE “Miss You”
PERFORMER “The Rolling Stones”
INDEX 00 22:25:27
INDEX 01 22:26:62
TRACK 07 AUDIO
TITLE “She’s So Cold”
PERFORMER “The Rolling Stones”
INDEX 00 27:14:14
INDEX 01 27:15:50
TRACK 08 AUDIO
TITLE “Start Me Up”
PERFORMER “The Rolling Stones”
INDEX 00 31:28:38
INDEX 01 31:30:00
TRACK 09 AUDIO
TITLE “Under Cover Of The Night”
PERFORMER “The Rolling Stones”
INDEX 00 35:03:15
INDEX 01 35:04:50
TRACK 10 AUDIO
TITLE “Harlem Shuffle”
PERFORMER “The Rolling Stones”
INDEX 00 39:38:02
INDEX 01 39:39:37
TRACK 11 AUDIO
TITLE “Bitch”
PERFORMER “The Rolling Stones”
INDEX 00 43:03:26
INDEX 01 43:04:62
TRACK 12 AUDIO
TITLE “Happy”
PERFORMER “The Rolling Stones”
INDEX 00 46:41:13
INDEX 01 46:42:50
TRACK 13 AUDIO
TITLE “Hot Stuff”
PERFORMER “The Rolling Stones”
INDEX 00 49:44:02
INDEX 01 49:45:37
TRACK 14 AUDIO
TITLE “All About You”
PERFORMER “The Rolling Stones”
INDEX 00 55:07:64
INDEX 01 55:09:25
TRACK 15 AUDIO
TITLE “One Hit (To The Body)”
PERFORMER “The Rolling Stones”
INDEX 00 59:28:26
INDEX 01 59:29:62
TRACK 16 AUDIO
TITLE “Honky Tonk Women”
PERFORMER “The Rolling Stones”
INDEX 00 64:14:52
INDEX 01 64:16:12
TRACK 17 AUDIO
TITLE “Jumping Jack Flash”
PERFORMER “The Rolling Stones”
INDEX 00 67:38:14
INDEX 01 67:39:50


Leave a Reply

Your email address will not be published. Required fields are marked *

This site uses Akismet to reduce spam. Learn how your comment data is processed.