The Rolling Stones – Some Girls (Limited Remastered Japanese Edition)




[Total: 0    Average: 0/5]

Artist: The Rolling Stones
Year: 2011
Genre: Rock
Notes: Discogs
Add. Notes: Limited Remastered Japanese Edition
Cover incl.: Yes
Encoder: FLAC
Bitrate: ~1000 kBit/s (44.1 kHz/16 Bit/s)
Log & Cue incl.: Yes
Size: 845,43 MB
Password: “slam” (without ” “)


All Downloads/Hosters are compatible

Download 1
Share-online.biz
KatFile.com
Rapidgator.net
Download 2
Share-online.biz
KatFile.com
Rapidgator.net

Tracklist:

Disc One - Remastered Studio Album (40:44)

1. Miss You (4:48)
2. When The Whip Comes Down (4:20)
3. Just My Imagination (Running Away With Me) (4:38)
4. Some Girls (4:36)
5. Lies (3:11)
6. Far Away Eyes (4:23)
7. Respectable (3:07)
8. Before They Make Me Run (3:24)
9. Beast Of Burden (4:25)
10. Shattered (3:46)

Disc Two - Bonus Material (44:26)

1. Claudine (3:42)
2. So Young (3:18)
3. Do You Think I Really Care (4:22)
4. When You're Gone (3:51)
5. No Spare Parts (4:30)
6. Don't Be A Stranger (4:06)
7. We Had It All (2:54)
8. Tallahassee Lassie (2:37)
9. I Love You Too Much (3:10)
10. Keep Up Blues (4:20)
11. You Win Again (3:00)
12. Petrol Blues (1:36)
Bonus Track:
13. So Young (Piano Version) (2:55)

EAC-Log, CUE-Sheed & NFO:

Click to open spoiler
Exact Audio Copy V1.0 beta 3 from 29. August 2011

EAC extraction logfile from 9. May 2014, 18:57

The Rolling Stones / Some Girls SHM-CD 1 Album

Used drive : PLEXTOR BD-R PX-B950SA Adapter: 6 ID: 0

Read mode : Secure
Utilize accurate stream : Yes
Defeat audio cache : Yes
Make use of C2 pointers : No

Read offset correction : 6
Overread into Lead-In and Lead-Out : No
Fill up missing offset samples with silence : Yes
Delete leading and trailing silent blocks : No
Null samples used in CRC calculations : Yes
Used interface : Native Win32 interface for Win NT & 2000

Used output format : Internal WAV Routines
Sample format : 44.100 Hz; 16 Bit; Stereo

TOC of the extracted CD

Track | Start | Length | Start sector | End sector
———————————————————
1 | 0:00.00 | 4:48.50 | 0 | 21649
2 | 4:48.50 | 4:20.72 | 21650 | 41221
3 | 9:09.47 | 4:38.13 | 41222 | 62084
4 | 13:47.60 | 4:36.70 | 62085 | 82854
5 | 18:24.55 | 3:11.20 | 82855 | 97199
6 | 21:36.00 | 4:23.72 | 97200 | 116996
7 | 25:59.72 | 3:07.33 | 116997 | 131054
8 | 29:07.30 | 3:24.72 | 131055 | 146426
9 | 32:32.27 | 4:25.13 | 146427 | 166314
10 | 36:57.40 | 3:46.60 | 166315 | 183324

Range status and errors

Selected range

Filename C:\Users\Meijin\Desktop\Lossless Galaxy ALLexxess\The Rolling Stones\1978 Some Girls (2SHM-CD + DVD + 7” Vinyl Box Set Universal Japan 2011)\CD1\The Rolling Stones – Some Girls SHM-CD 1 Album.wav

Peak level 98.7 %
Extraction speed 6.7 X
Range quality 100.0 %
Test CRC 3DFFC8D0
Copy CRC 3DFFC8D0
Copy OK

No errors occurred

AccurateRip summary

Track 1 accurately ripped (confidence 200) [2EFE9613] (AR v2)
Track 2 accurately ripped (confidence 200) [72257CFB] (AR v2)
Track 3 accurately ripped (confidence 200) [F8544FE4] (AR v2)
Track 4 accurately ripped (confidence 200) [6986F301] (AR v2)
Track 5 accurately ripped (confidence 200) [875FFB21] (AR v2)
Track 6 accurately ripped (confidence 200) [745B4799] (AR v2)
Track 7 accurately ripped (confidence 200) [E816F408] (AR v2)
Track 8 accurately ripped (confidence 200) [11F0CA4E] (AR v2)
Track 9 accurately ripped (confidence 200) [BFBED119] (AR v2)
Track 10 accurately ripped (confidence 200) [6AEBC587] (AR v2)

All tracks accurately ripped

End of status report

==== Log checksum 9180C0FB6908723CDFA59A0F966294AB900BFCFF18B9648CFD04876A4C94C215 ====

Exact Audio Copy V1.0 beta 3 from 29. August 2011

EAC extraction logfile from 9. May 2014, 18:24

The Rolling Stones / Some Girls SHM-CD 2 Bonus

Used drive : PLEXTOR BD-R PX-B950SA Adapter: 6 ID: 0

Read mode : Secure
Utilize accurate stream : Yes
Defeat audio cache : Yes
Make use of C2 pointers : No

Read offset correction : 6
Overread into Lead-In and Lead-Out : No
Fill up missing offset samples with silence : Yes
Delete leading and trailing silent blocks : No
Null samples used in CRC calculations : Yes
Used interface : Native Win32 interface for Win NT & 2000

Used output format : Internal WAV Routines
Sample format : 44.100 Hz; 16 Bit; Stereo

TOC of the extracted CD

Track | Start | Length | Start sector | End sector
———————————————————
1 | 0:00.00 | 3:42.19 | 0 | 16668
2 | 3:42.19 | 3:18.60 | 16669 | 31578
3 | 7:01.04 | 4:22.18 | 31579 | 51246
4 | 11:23.22 | 3:51.50 | 51247 | 68621
5 | 15:14.72 | 4:30.35 | 68622 | 88906
6 | 19:45.32 | 4:06.20 | 88907 | 107376
7 | 23:51.52 | 2:54.01 | 107377 | 120427
8 | 26:45.53 | 2:37.07 | 120428 | 132209
9 | 29:22.60 | 3:10.46 | 132210 | 146505
10 | 32:33.31 | 4:20.67 | 146506 | 166072
11 | 36:54.23 | 3:00.21 | 166073 | 179593
12 | 39:54.44 | 1:36.06 | 179594 | 186799
13 | 41:30.50 | 2:55.23 | 186800 | 199947

Range status and errors

Selected range

Filename C:\Users\Meijin\Desktop\Lossless Galaxy ALLexxess\The Rolling Stones\1978 Some Girls (2SHM-CD + DVD + 7” Vinyl Box Set Universal Japan 2011)\CD2\The Rolling Stones – Some Girls SHM-CD 2 Bonus.wav

Peak level 98.8 %
Extraction speed 6.8 X
Range quality 99.9 %
Test CRC 8B05600C
Copy CRC 8B05600C
Copy OK

No errors occurred

AccurateRip summary

Track 1 accurately ripped (confidence 11) [84B0673E] (AR v2)
Track 2 accurately ripped (confidence 11) [2D3F9DF8] (AR v2)
Track 3 accurately ripped (confidence 11) [0258F881] (AR v2)
Track 4 accurately ripped (confidence 11) [E6A5DB6A] (AR v2)
Track 5 accurately ripped (confidence 11) [9F8D5F4A] (AR v2)
Track 6 accurately ripped (confidence 11) [1B0A9B4E] (AR v2)
Track 7 accurately ripped (confidence 11) [BD45306B] (AR v2)
Track 8 accurately ripped (confidence 11) [110124E5] (AR v2)
Track 9 accurately ripped (confidence 11) [C14EEAB6] (AR v2)
Track 10 accurately ripped (confidence 11) [E3D17EC2] (AR v2)
Track 11 accurately ripped (confidence 11) [E4CDD90C] (AR v2)
Track 12 accurately ripped (confidence 11) [34A4F2F7] (AR v2)
Track 13 accurately ripped (confidence 11) [A1C33AC9] (AR v2)

All tracks accurately ripped

End of status report

==== Log checksum 0F6D8A1E2ACC03426CE02471B74BA8AFD0C3E7DC0CED47458F51F3FF29F8E04F ====

REM GENRE “Rock / Rock & Roll / Classic Rock”
REM DATE 1978
REM DISCID 8A098C0A
REM COMMENT “ExactAudioCopy v1.0b3”
PERFORMER “The Rolling Stones”
TITLE “Some Girls SHM-CD 1 Album”
FILE “The Rolling Stones – Some Girls SHM-CD 1 Album.flac” WAVE
TRACK 01 AUDIO
TITLE “Miss You”
PERFORMER “The Rolling Stones”
INDEX 01 00:00:00
TRACK 02 AUDIO
TITLE “When The Whip Comes Down”
PERFORMER “The Rolling Stones”
INDEX 01 04:48:50
TRACK 03 AUDIO
TITLE “Just My Imagination (Running Away With Me)”
PERFORMER “The Rolling Stones”
INDEX 00 09:09:15
INDEX 01 09:09:47
TRACK 04 AUDIO
TITLE “Some Girls”
PERFORMER “The Rolling Stones”
INDEX 01 13:47:60
TRACK 05 AUDIO
TITLE “Lies”
PERFORMER “The Rolling Stones”
INDEX 00 18:24:02
INDEX 01 18:24:55
TRACK 06 AUDIO
TITLE “Far Away Eyes”
PERFORMER “The Rolling Stones”
INDEX 00 21:35:32
INDEX 01 21:36:00
TRACK 07 AUDIO
TITLE “Respectable”
PERFORMER “The Rolling Stones”
INDEX 01 25:59:72
TRACK 08 AUDIO
TITLE “Before They Make Me Run”
PERFORMER “The Rolling Stones”
INDEX 00 29:06:47
INDEX 01 29:07:30
TRACK 09 AUDIO
TITLE “Beast Of Burden”
PERFORMER “The Rolling Stones”
INDEX 00 32:32:05
INDEX 01 32:32:27
TRACK 10 AUDIO
TITLE “Shattered”
PERFORMER “The Rolling Stones”
INDEX 01 36:57:40

REM GENRE “Rock / Rock & Roll / Classic Rock”
REM DATE 1978
REM DISCID B60A690D
REM COMMENT “ExactAudioCopy v1.0b3”
PERFORMER “The Rolling Stones”
TITLE “Some Girls SHM-CD 2 Bonus”
FILE “The Rolling Stones – Some Girls SHM-CD 2 Bonus.flac” WAVE
TRACK 01 AUDIO
TITLE “Claudine”
PERFORMER “The Rolling Stones”
INDEX 01 00:00:00
TRACK 02 AUDIO
TITLE “So Young”
PERFORMER “The Rolling Stones”
INDEX 01 03:42:19
TRACK 03 AUDIO
TITLE “Do You Think I Really Care”
PERFORMER “The Rolling Stones”
INDEX 01 07:01:04
TRACK 04 AUDIO
TITLE “When You’re Gone”
PERFORMER “The Rolling Stones”
INDEX 01 11:23:22
TRACK 05 AUDIO
TITLE “No Spare Parts”
PERFORMER “The Rolling Stones”
INDEX 01 15:14:72
TRACK 06 AUDIO
TITLE “Don’t Be A Stranger”
PERFORMER “The Rolling Stones”
INDEX 01 19:45:32
TRACK 07 AUDIO
TITLE “We Had It All”
PERFORMER “The Rolling Stones”
INDEX 01 23:51:52
TRACK 08 AUDIO
TITLE “Tallahassee Lassie”
PERFORMER “The Rolling Stones”
INDEX 01 26:45:53
TRACK 09 AUDIO
TITLE “I Love You Too Much”
PERFORMER “The Rolling Stones”
INDEX 00 29:22:45
INDEX 01 29:22:60
TRACK 10 AUDIO
TITLE “Keep Up Blues”
PERFORMER “The Rolling Stones”
INDEX 01 32:33:31
TRACK 11 AUDIO
TITLE “You Win Again”
PERFORMER “The Rolling Stones”
INDEX 00 36:53:35
INDEX 01 36:54:23
TRACK 12 AUDIO
TITLE “Petrol Blues”
PERFORMER “The Rolling Stones”
INDEX 01 39:54:44
TRACK 13 AUDIO
TITLE “So Young (Piano Version) / Bonus Track”
PERFORMER “The Rolling Stones”
INDEX 00 41:29:58
INDEX 01 41:30:50


Spread the Download

Leave a Reply

Your email address will not be published. Required fields are marked *

Enter the text from the image below
 

This site uses Akismet to reduce spam. Learn how your comment data is processed.