The Rolling Stones – Singles Collection: The London Years (Remastered)




No Cover available

Artist: The Rolling Stones
Year: 2002
Genre: Rock
Notes: Discogs
Add. Notes: Remastered
Watch Songs on: YouTube
Cover incl.: Yes
Encoder: FLAC
Bitrate: ~700 kBit/s (44.1 kHz/16 Bit/s)
Log & Cue incl.: Yes/Yes
Size: 911,9 MB
Password: “slam” (without ” “)


All Downloads/Hosters are compatible

Download 1
KatFile.com
Turbobit.net
FileFactory.com
Rapidgator.net
Download 2
KatFile.com
Turbobit.net
FileFactory.com
Rapidgator.net

Tracklist:

1-1 Come On 1:48
1-2 I Want To Be Loved 1:51
1-3 I Wanna Be Your Man 1:43
1-4 Stoned 2:09
1-5 Not Fade Away 1:46
1-6 Little By Little 2:39
1-7 It's All Over Now 3:27
1-8 Good Times, Bad Times 2:30
1-9 Tell Me 3:48
1-10 I Just Want To Make Love To You 2:16
1-11 Time Is On My Side 2:52
1-12 Congratulations 2:27
1-13 Little Red Rooster 3:04
1-14 Off The Hook 2:34
1-15 Heart Of Stone 2:45
1-16 What A Shame 3:02
1-17 The Last Time 3:41
1-18 Play With Fire 2:14
1-19 (I Can't Get No) Satisfaction 3:43
1-20 The Under Assistant West Coast Promotion Man 
3:08
1-21 The Spider And The Fly 3:38
1-22 Get Off Of My Cloud 2:53
1-23 I'm Free 2:24
1-24 The Singer Not The Song 2:24
1-25 As Tears Go By 2:45

2-1 Gotta Get Away 2:06
2-2 19th Nervous Breakdown 3:56
2-3 Sad Day 3:03
2-4 Paint It, Black 3:44
2-5 Stupid Girl 2:55
2-6 Long, Long While 3:00
2-7 Mother's Little Helper 2:45
2-8 Lady Jane 3:11
2-9 Have You Seen Your Mother, Baby, Standing In The 
Shadow? 2:33
2-10 Who's Driving Your Plane? 3:13
2-11 Let's Spend The Night Together 3:28
2-12 Ruby Tuesday 3:13
2-13 We Love You 4:36
2-14 Dandelion 3:47
2-15 She's A Rainbow 4:11
2.16 2000 Light Years From Home 4:44
2-17 In Another Land 2:53
2-18 The Lantern 4:25
2-19 Jumpin' Jack Flash 3:37
2-20 Child Of The Moon (Remake) 3:12

3-1 Street Fighting Man 3:09
3-2 No Expectations 3:55
3-3 Surprise, Surprise 2:30
3-4 Honky Tonk Women 3:01
3-5 You Can't Always Get What You Want 4:49
3-6 Memo From Turner 4:06
3-7 Brown Sugar 3:50
3-8 Wild Horses 5:42
3-9 I Don't Know Why (Don't Know Why I Love You) 3:01
3-10 Try A Little Harder 2:16
3-11 Out Of Time 3:21
3-12 Jiving Sister Fanny 3:19
3-13 Sympathy For The Devil 6:16

EAC-Log, CUE-Sheed & NFO:

Click to open spoiler
Exact Audio Copy V1.0 beta 3 from 29. August 2011

EAC extraction logfile from 3. August 2012, 17:52

The Rolling Stones / Singles Collection: The London Years (Disc1) 882340-2

Used drive : PIONEER DVD-RW DVR-219L Adapter: 2 ID: 0

Read mode : Secure
Utilize accurate stream : Yes
Defeat audio cache : Yes
Make use of C2 pointers : No

Read offset correction : 6
Overread into Lead-In and Lead-Out : No
Fill up missing offset samples with silence : Yes
Delete leading and trailing silent blocks : No
Null samples used in CRC calculations : Yes
Used interface : Native Win32 interface for Win NT & 2000

Used output format : User Defined Encoder
Selected bitrate : 1024 kBit/s
Quality : High
Add ID3 tag : No
Command line compressor : C:\Program Files\Exact Audio Copy\Flac\flac.exe
Additional command line options : -V -8 -T “Genre=%genre%” -T “Artist=%artist%” -T “Title=%title%” -T “Album=%albumtitle%” -T “Date=%year%” -T “Tracknumber=%tracknr%” -T “Comment=%comment%” %source%

TOC of the extracted CD

Track | Start | Length | Start sector | End sector
———————————————————
1 | 0:00.00 | 1:48.45 | 0 | 8144
2 | 1:48.45 | 1:51.42 | 8145 | 16511
3 | 3:40.12 | 1:43.13 | 16512 | 24249
4 | 5:23.25 | 2:09.20 | 24250 | 33944
5 | 7:32.45 | 1:46.65 | 33945 | 41959
6 | 9:19.35 | 2:39.00 | 41960 | 53884
7 | 11:58.35 | 3:27.35 | 53885 | 69444
8 | 15:25.70 | 2:30.45 | 69445 | 80739
9 | 17:56.40 | 3:48.37 | 80740 | 97876
10 | 21:45.02 | 2:16.68 | 97877 | 108144
11 | 24:01.70 | 2:52.60 | 108145 | 121104
12 | 26:54.55 | 2:27.67 | 121105 | 132196
13 | 29:22.47 | 3:04.38 | 132197 | 146034
14 | 32:27.10 | 2:34.17 | 146035 | 157601
15 | 35:01.27 | 2:45.23 | 157602 | 169999
16 | 37:46.50 | 3:02.32 | 170000 | 183681
17 | 40:49.07 | 3:41.58 | 183682 | 200314
18 | 44:30.65 | 2:14.52 | 200315 | 210416
19 | 46:45.42 | 3:43.60 | 210417 | 227201
20 | 50:29.27 | 3:08.20 | 227202 | 241321
21 | 53:37.47 | 3:38.28 | 241322 | 257699
22 | 57:16.00 | 2:53.52 | 257700 | 270726
23 | 60:09.52 | 2:24.08 | 270727 | 281534
24 | 62:33.60 | 2:24.10 | 281535 | 292344
25 | 64:57.70 | 2:45.17 | 292345 | 304736

Range status and errors

Selected range

Filename H:\dafnaplus\Singles Collection – The London Years [ABKCO 882340-2]\Cd1\The Rolling Stones – Singles Collection- The London Years (Disc1) 882340-2.wav

Peak level 99.8 %
Extraction speed 1.8 X
Range quality 100.0 %
Test CRC 110671F6
Copy CRC 110671F6
Copy OK

No errors occurred

AccurateRip summary

Track 1 accurately ripped (confidence 10) [B3E8505E] (AR v2)
Track 2 accurately ripped (confidence 10) [AEA331B0] (AR v2)
Track 3 accurately ripped (confidence 10) [6811B262] (AR v2)
Track 4 accurately ripped (confidence 10) [D1584B5F] (AR v2)
Track 5 accurately ripped (confidence 10) [1B7E1F44] (AR v2)
Track 6 accurately ripped (confidence 10) [182671C3] (AR v2)
Track 7 accurately ripped (confidence 10) [0B9823DE] (AR v2)
Track 8 accurately ripped (confidence 10) [6082B7E4] (AR v2)
Track 9 accurately ripped (confidence 10) [8602FF50] (AR v2)
Track 10 accurately ripped (confidence 10) [7BBC608B] (AR v2)
Track 11 accurately ripped (confidence 10) [292DE62A] (AR v2)
Track 12 accurately ripped (confidence 10) [F5E21F1F] (AR v2)
Track 13 accurately ripped (confidence 10) [984F7208] (AR v2)
Track 14 accurately ripped (confidence 10) [3ED14F8E] (AR v2)
Track 15 accurately ripped (confidence 10) [D0222456] (AR v2)
Track 16 accurately ripped (confidence 10) [E38471F6] (AR v2)
Track 17 accurately ripped (confidence 10) [B2AB2024] (AR v2)
Track 18 accurately ripped (confidence 10) [8D6AAAE7] (AR v2)
Track 19 accurately ripped (confidence 10) [D906E189] (AR v2)
Track 20 accurately ripped (confidence 10) [AFC188BA] (AR v2)
Track 21 accurately ripped (confidence 10) [726414BF] (AR v2)
Track 22 accurately ripped (confidence 10) [70E50787] (AR v2)
Track 23 accurately ripped (confidence 10) [D69688E6] (AR v2)
Track 24 accurately ripped (confidence 10) [FFF4303A] (AR v2)
Track 25 accurately ripped (confidence 10) [05647D15] (AR v2)

All tracks accurately ripped

End of status report

==== Log checksum 25EF5CB117C9F583B8671B1EF61B6B5AD17A59F34DE9B5626B7151EB7584452E ====

Exact Audio Copy V1.0 beta 3 from 29. August 2011

EAC extraction logfile from 3. August 2012, 19:09

The Rolling Stones / Singles Collection – The London Years (Disc 2) 882340-2

Used drive : PIONEER DVD-RW DVR-219L Adapter: 2 ID: 0

Read mode : Secure
Utilize accurate stream : Yes
Defeat audio cache : Yes
Make use of C2 pointers : No

Read offset correction : 6
Overread into Lead-In and Lead-Out : No
Fill up missing offset samples with silence : Yes
Delete leading and trailing silent blocks : No
Null samples used in CRC calculations : Yes
Used interface : Native Win32 interface for Win NT & 2000

Used output format : User Defined Encoder
Selected bitrate : 1024 kBit/s
Quality : High
Add ID3 tag : No
Command line compressor : C:\Program Files\Exact Audio Copy\Flac\flac.exe
Additional command line options : -V -8 -T “Genre=%genre%” -T “Artist=%artist%” -T “Title=%title%” -T “Album=%albumtitle%” -T “Date=%year%” -T “Tracknumber=%tracknr%” -T “Comment=%comment%” %source%

TOC of the extracted CD

Track | Start | Length | Start sector | End sector
———————————————————
1 | 0:00.32 | 2:06.50 | 32 | 9531
2 | 2:07.07 | 3:56.73 | 9532 | 27304
3 | 6:04.05 | 3:02.72 | 27305 | 41026
4 | 9:07.02 | 3:44.30 | 41027 | 57856
5 | 12:51.32 | 2:55.53 | 57857 | 71034
6 | 15:47.10 | 3:00.62 | 71035 | 84596
7 | 18:47.72 | 2:45.10 | 84597 | 96981
8 | 21:33.07 | 3:10.55 | 96982 | 111286
9 | 24:43.62 | 2:34.10 | 111287 | 122846
10 | 27:17.72 | 3:13.45 | 122847 | 137366
11 | 30:31.42 | 3:28.03 | 137367 | 152969
12 | 33:59.45 | 3:13.07 | 152970 | 167451
13 | 37:12.52 | 4:36.55 | 167452 | 188206
14 | 41:49.32 | 3:48.00 | 188207 | 205306
15 | 45:37.32 | 4:11.28 | 205307 | 224159
16 | 49:48.60 | 4:44.32 | 224160 | 245491
17 | 54:33.17 | 2:53.03 | 245492 | 258469
18 | 57:26.20 | 4:25.65 | 258470 | 278409
19 | 61:52.10 | 3:37.65 | 278410 | 294749
20 | 65:30.00 | 3:12.17 | 294750 | 309166

Range status and errors

Selected range

Filename H:\dafnaplus\Singles Collection – The London Years [ABKCO 882340-2]\Cd2\The Rolling Stones – Singles Collection – The London Years (Disc 2) 882340-2.wav

Peak level 99.8 %
Extraction speed 1.8 X
Range quality 100.0 %
Test CRC F1C200C7
Copy CRC F1C200C7
Copy OK

No errors occurred

AccurateRip summary

Track 1 accurately ripped (confidence 10) [EC866800] (AR v2)
Track 2 accurately ripped (confidence 10) [F4C0F3AF] (AR v2)
Track 3 accurately ripped (confidence 10) [CA88B7F5] (AR v2)
Track 4 accurately ripped (confidence 10) [BCEB1D21] (AR v2)
Track 5 accurately ripped (confidence 10) [80EDA148] (AR v2)
Track 6 accurately ripped (confidence 10) [1C4950D1] (AR v2)
Track 7 accurately ripped (confidence 10) [5CE5C862] (AR v2)
Track 8 accurately ripped (confidence 10) [828352CD] (AR v2)
Track 9 accurately ripped (confidence 10) [D44D0C2A] (AR v2)
Track 10 accurately ripped (confidence 10) [C06E909B] (AR v2)
Track 11 accurately ripped (confidence 10) [7A0DEC84] (AR v2)
Track 12 accurately ripped (confidence 10) [573F611F] (AR v2)
Track 13 accurately ripped (confidence 10) [00FC06EE] (AR v2)
Track 14 accurately ripped (confidence 10) [25976DCB] (AR v2)
Track 15 accurately ripped (confidence 10) [C08D4B96] (AR v2)
Track 16 accurately ripped (confidence 10) [A51ADC8E] (AR v2)
Track 17 accurately ripped (confidence 10) [C5AAC826] (AR v2)
Track 18 accurately ripped (confidence 10) [60A5A3C5] (AR v2)
Track 19 accurately ripped (confidence 10) [B24DA7EC] (AR v2)
Track 20 accurately ripped (confidence 10) [E9953D35] (AR v2)

All tracks accurately ripped

End of status report

==== Log checksum B9410DA892068104B770EBF73FD3CFD94F00A1CBC3B8F2395F1D5543CEA57E3C ====

Exact Audio Copy V1.0 beta 3 from 29. August 2011

EAC extraction logfile from 3. August 2012, 20:45

The Rolling Stones / Singles Collection: The London Years (Disc3) 882340-2

Used drive : PIONEER DVD-RW DVR-219L Adapter: 2 ID: 0

Read mode : Secure
Utilize accurate stream : Yes
Defeat audio cache : Yes
Make use of C2 pointers : No

Read offset correction : 6
Overread into Lead-In and Lead-Out : No
Fill up missing offset samples with silence : Yes
Delete leading and trailing silent blocks : No
Null samples used in CRC calculations : Yes
Used interface : Native Win32 interface for Win NT & 2000

Used output format : User Defined Encoder
Selected bitrate : 1024 kBit/s
Quality : High
Add ID3 tag : No
Command line compressor : C:\Program Files\Exact Audio Copy\Flac\flac.exe
Additional command line options : -V -8 -T “Genre=%genre%” -T “Artist=%artist%” -T “Title=%title%” -T “Album=%albumtitle%” -T “Date=%year%” -T “Tracknumber=%tracknr%” -T “Comment=%comment%” %source%

TOC of the extracted CD

Track | Start | Length | Start sector | End sector
———————————————————
1 | 0:00.00 | 3:09.42 | 0 | 14216
2 | 3:09.42 | 3:55.05 | 14217 | 31846
3 | 7:04.47 | 2:30.15 | 31847 | 43111
4 | 9:34.62 | 3:01.15 | 43112 | 56701
5 | 12:36.02 | 4:49.28 | 56702 | 78404
6 | 17:25.30 | 4:06.27 | 78405 | 96881
7 | 21:31.57 | 3:50.00 | 96882 | 114131
8 | 25:21.57 | 5:42.25 | 114132 | 139806
9 | 31:04.07 | 3:01.60 | 139807 | 153441
10 | 34:05.67 | 2:16.73 | 153442 | 163714
11 | 36:22.65 | 3:21.62 | 163715 | 178851
12 | 39:44.52 | 3:19.68 | 178852 | 193844
13 | 43:04.45 | 6:16.60 | 193845 | 222104

Range status and errors

Selected range

Filename H:\dafnaplus\Singles Collection – The London Years [ABKCO 882340-2]\Cd3\The Rolling Stones – Singles Collection- The London Years (Disc3) 882340-2.wav

Peak level 99.8 %
Extraction speed 1.6 X
Range quality 100.0 %
Test CRC 96E994E1
Copy CRC 96E994E1
Copy OK

No errors occurred

AccurateRip summary

Track 1 accurately ripped (confidence 10) [AA26C1A6] (AR v2)
Track 2 accurately ripped (confidence 10) [5C2ACA01] (AR v2)
Track 3 accurately ripped (confidence 10) [8634BACF] (AR v2)
Track 4 accurately ripped (confidence 10) [5424A678] (AR v2)
Track 5 accurately ripped (confidence 10) [E9E710FE] (AR v2)
Track 6 accurately ripped (confidence 10) [64A0EE43] (AR v2)
Track 7 accurately ripped (confidence 10) [A103FFE4] (AR v2)
Track 8 accurately ripped (confidence 10) [4BE6050A] (AR v2)
Track 9 accurately ripped (confidence 10) [144F7462] (AR v2)
Track 10 accurately ripped (confidence 10) [0A16900E] (AR v2)
Track 11 accurately ripped (confidence 10) [6527EC80] (AR v2)
Track 12 accurately ripped (confidence 10) [287FCE2E] (AR v2)
Track 13 accurately ripped (confidence 10) [B0CB199E] (AR v2)

All tracks accurately ripped

End of status report

==== Log checksum 2148396B2E7A13BC84DA172F9546062B67E33CC9BB5469F01E573F31B81B93E7 ====

REM GENRE Rock
REM DATE 2002
REM DISCID 510FDF19
REM COMMENT “ExactAudioCopy v1.0b3”
PERFORMER “The Rolling Stones”
TITLE “Singles Collection: The London Years (Disc1) 882340-2”
FILE “The Rolling Stones – Singles Collection- The London Years (Disc1) 882340-2.flac” WAVE
TRACK 01 AUDIO
TITLE “Come On”
PERFORMER “The Rolling Stones”
ISRC USA176310010
INDEX 01 00:00:00
TRACK 02 AUDIO
TITLE “I Want To Be Loved”
PERFORMER “The Rolling Stones”
ISRC USA176310020
INDEX 00 01:48:37
INDEX 01 01:48:45
TRACK 03 AUDIO
TITLE “I Wanna Be Your Man”
PERFORMER “The Rolling Stones”
ISRC USA176310030
INDEX 01 03:40:12
TRACK 04 AUDIO
TITLE “Stoned”
PERFORMER “The Rolling Stones”
ISRC USA176310040
INDEX 01 05:23:25
TRACK 05 AUDIO
TITLE “Not Fade Away”
PERFORMER “The Rolling Stones”
ISRC USA176410010
INDEX 01 07:32:45
TRACK 06 AUDIO
TITLE “Little By Little”
PERFORMER “The Rolling Stones”
ISRC USA176410060
INDEX 01 09:19:35
TRACK 07 AUDIO
TITLE “It’s All Over Now”
PERFORMER “The Rolling Stones”
ISRC USA176410180
INDEX 01 11:58:35
TRACK 08 AUDIO
TITLE “Good Times, Bad Times”
PERFORMER “The Rolling Stones”
ISRC USA176410170
INDEX 01 15:25:70
TRACK 09 AUDIO
TITLE “Tell Me”
PERFORMER “The Rolling Stones”
ISRC USA176410090
INDEX 01 17:56:40
TRACK 10 AUDIO
TITLE “I Just Want To Make Love To You”
PERFORMER “The Rolling Stones”
ISRC USA176410030
INDEX 00 21:43:70
INDEX 01 21:45:02
TRACK 11 AUDIO
TITLE “Time Is On My Side”
PERFORMER “The Rolling Stones”
ISRC USA176410160
INDEX 00 24:01:62
INDEX 01 24:01:70
TRACK 12 AUDIO
TITLE “Congratulations”
PERFORMER “The Rolling Stones”
ISRC USA176410210
INDEX 00 26:54:47
INDEX 01 26:54:55
TRACK 13 AUDIO
TITLE “Little Red Rooster”
PERFORMER “The Rolling Stones”
ISRC USA176410270
INDEX 00 29:22:42
INDEX 01 29:22:47
TRACK 14 AUDIO
TITLE “Off The Hook”
PERFORMER “The Rolling Stones”
ISRC USA176410260
INDEX 01 32:27:10
TRACK 15 AUDIO
TITLE “Heart Of Stone”
PERFORMER “The Rolling Stones”
ISRC USA176510040
INDEX 01 35:01:27
TRACK 16 AUDIO
TITLE “What A Shame”
PERFORMER “The Rolling Stones”
ISRC USA176510050
INDEX 01 37:46:50
TRACK 17 AUDIO
TITLE “The Last Time”
PERFORMER “The Rolling Stones”
ISRC USA176510120
INDEX 01 40:49:07
TRACK 18 AUDIO
TITLE “Play With Fire”
PERFORMER “The Rolling Stones”
ISRC USA176510190
INDEX 00 44:30:45
INDEX 01 44:30:65
TRACK 19 AUDIO
TITLE “(I Can’t Get No) Satisfaction”
PERFORMER “The Rolling Stones”
ISRC USA176510160
INDEX 00 46:44:35
INDEX 01 46:45:42
TRACK 20 AUDIO
TITLE “The Under Assistant West Coast Promotion Man”
PERFORMER “The Rolling Stones”
ISRC USA176510180
INDEX 00 50:28:30
INDEX 01 50:29:27
TRACK 21 AUDIO
TITLE “The Spider And The Fly”
PERFORMER “The Rolling Stones”
ISRC USA176510200
INDEX 00 53:37:00
INDEX 01 53:37:47
TRACK 22 AUDIO
TITLE “Get Off Of My Cloud”
PERFORMER “The Rolling Stones”
ISRC USA176510270
INDEX 00 57:15:50
INDEX 01 57:16:00
TRACK 23 AUDIO
TITLE “I’m Free”
PERFORMER “The Rolling Stones”
ISRC USA176510280
INDEX 01 60:09:52
TRACK 24 AUDIO
TITLE “The Singer Not The Song”
PERFORMER “The Rolling Stones”
ISRC USA176510250
INDEX 00 62:33:22
INDEX 01 62:33:60
TRACK 25 AUDIO
TITLE “As Tears Go By”
PERFORMER “The Rolling Stones”
ISRC USA176510290
INDEX 00 64:56:02
INDEX 01 64:57:70

REM GENRE Rock
REM DATE 2002
REM DISCID 31101A14
REM COMMENT “ExactAudioCopy v1.0b3”
PERFORMER “The Rolling Stones”
TITLE “Singles Collection – The London Years (Disc 2) 882340-2”
FILE “The Rolling Stones – Singles Collection – The London Years (Disc 2) 882340-2.flac” WAVE
TRACK 01 AUDIO
TITLE “Gotta Get Away”
PERFORMER “The Rolling Stones”
ISRC USA176510300
INDEX 00 00:00:00
INDEX 01 00:00:32
TRACK 02 AUDIO
TITLE “19Th Nervous Breakdown”
PERFORMER “The Rolling Stones”
ISRC USA176610010
INDEX 01 02:07:07
TRACK 03 AUDIO
TITLE “Sad Day”
PERFORMER “The Rolling Stones”
ISRC USA176610310
INDEX 00 06:03:55
INDEX 01 06:04:05
TRACK 04 AUDIO
TITLE “Paint It, Black”
PERFORMER “The Rolling Stones”
ISRC USA176610020
INDEX 00 09:05:52
INDEX 01 09:07:02
TRACK 05 AUDIO
TITLE “Stupid Girl”
PERFORMER “The Rolling Stones”
ISRC USA176610030
INDEX 00 12:51:22
INDEX 01 12:51:32
TRACK 06 AUDIO
TITLE “Long Long While”
PERFORMER “The Rolling Stones”
ISRC USA176610290
INDEX 00 15:46:30
INDEX 01 15:47:10
TRACK 07 AUDIO
TITLE “Mother’s Little Helper”
PERFORMER “The Rolling Stones”
ISRC USA176610270
INDEX 01 18:47:72
TRACK 08 AUDIO
TITLE “Lady Jane”
PERFORMER “The Rolling Stones”
ISRC USA176610040
INDEX 01 21:33:07
TRACK 09 AUDIO
TITLE “Have You Seen Your Mother, Baby, Standing In The Shadow?”
PERFORMER “The Rolling Stones”
ISRC USA176610250
INDEX 00 24:42:45
INDEX 01 24:43:62
TRACK 10 AUDIO
TITLE “Who’s Driving Your Plane?”
PERFORMER “The Rolling Stones”
ISRC USA176610320
INDEX 01 27:17:72
TRACK 11 AUDIO
TITLE “Let’s Spend The Night Together”
PERFORMER “The Rolling Stones”
ISRC USA176710010
INDEX 01 30:31:42
TRACK 12 AUDIO
TITLE “Ruby Tuesday”
PERFORMER “The Rolling Stones”
ISRC USA176710030
INDEX 00 33:57:40
INDEX 01 33:59:45
TRACK 13 AUDIO
TITLE “We Love You”
PERFORMER “The Rolling Stones”
ISRC USA176710290
INDEX 00 37:12:47
INDEX 01 37:12:52
TRACK 14 AUDIO
TITLE “Dandelion”
PERFORMER “The Rolling Stones”
ISRC USA176710280
INDEX 00 41:48:50
INDEX 01 41:49:32
TRACK 15 AUDIO
TITLE “She’s A Rainbow”
PERFORMER “The Rolling Stones”
ISRC USA176710230
INDEX 01 45:37:32
TRACK 16 AUDIO
TITLE “2000 Light Years From Home”
PERFORMER “The Rolling Stones”
ISRC USA176710260
INDEX 01 49:48:60
TRACK 17 AUDIO
TITLE “In Another Land”
PERFORMER “The Rolling Stones”
ISRC USA176710200
INDEX 01 54:33:17
TRACK 18 AUDIO
TITLE “The Lantern”
PERFORMER “The Rolling Stones”
ISRC USA176710240
INDEX 00 57:25:40
INDEX 01 57:26:20
TRACK 19 AUDIO
TITLE “Jumpin’ Jack Flash”
PERFORMER “The Rolling Stones”
ISRC USA176810110
INDEX 01 61:52:10
TRACK 20 AUDIO
TITLE “Child Of The Moon”
PERFORMER “The Rolling Stones”
ISRC USA176810120
INDEX 00 65:29:65
INDEX 01 65:30:00

REM GENRE Rock
REM DATE 2002
REM DISCID BE0B910D
REM COMMENT “ExactAudioCopy v1.0b3”
PERFORMER “The Rolling Stones”
TITLE “Singles Collection: The London Years (Disc3) 882340-2”
FILE “The Rolling Stones – Singles Collection- The London Years (Disc3) 882340-2.flac” WAVE
TRACK 01 AUDIO
TITLE “Street Fighting Man”
PERFORMER “The Rolling Stones”
ISRC USA176810130
INDEX 01 00:00:00
TRACK 02 AUDIO
TITLE “No Expectations”
PERFORMER “The Rolling Stones”
ISRC USA176810020
INDEX 00 03:08:52
INDEX 01 03:09:42
TRACK 03 AUDIO
TITLE “Surprise, Surprise”
PERFORMER “The Rolling Stones”
ISRC USA176510090
INDEX 00 07:04:05
INDEX 01 07:04:47
TRACK 04 AUDIO
TITLE “Honky Tonk Women”
PERFORMER “The Rolling Stones”
ISRC USA176910010
INDEX 00 09:34:25
INDEX 01 09:34:62
TRACK 05 AUDIO
TITLE “You can’t always get what you want”
PERFORMER “The Rolling Stones”
ISRC USA176910110
INDEX 00 12:34:20
INDEX 01 12:36:02
TRACK 06 AUDIO
TITLE “Memo from Turner”
PERFORMER “The Rolling Stones”
ISRC USA177010110
INDEX 01 17:25:30
TRACK 07 AUDIO
TITLE “Brown Sugar”
PERFORMER “The Rolling Stones”
ISRC USA177110010
INDEX 01 21:31:57
TRACK 08 AUDIO
TITLE “Wild Horses”
PERFORMER “The Rolling Stones”
ISRC USA177110020
INDEX 00 25:20:72
INDEX 01 25:21:57
TRACK 09 AUDIO
TITLE “I don’t know why aka Don’t know why I love you”
PERFORMER “The Rolling Stones”
ISRC USA177510010
INDEX 01 31:04:07
TRACK 10 AUDIO
TITLE “Try a little harder”
PERFORMER “The Rolling Stones”
ISRC USA177510020
INDEX 00 34:04:55
INDEX 01 34:05:67
TRACK 11 AUDIO
TITLE “Out of Time”
PERFORMER “The Rolling Stones”
ISRC USA177510030
INDEX 01 36:22:65
TRACK 12 AUDIO
TITLE “Jiving Sister Fanny”
PERFORMER “The Rolling Stones”
ISRC USA177510040
INDEX 01 39:44:52
TRACK 13 AUDIO
TITLE “Sympathy for the Devil”
PERFORMER “The Rolling Stones”
ISRC USA176810010
INDEX 01 43:04:45


Leave a Reply

Your email address will not be published. Required fields are marked *

Enter the text from the image below
 

This site uses Akismet to reduce spam. Learn how your comment data is processed.