The Rolling Stones – Singles 1968-1971




Artist: The Rolling Stones
Year: 2005
Genre: Rock
Notes: Discogs
Add. Notes:
Cover incl.: Yes
Encoder: FLAC
Bitrate: ~700 kBit/s (44.1 kHz/16 Bit/s)
Log & Cue incl.: Yes
Size: 985,16 MB
Password: “slam” (without ” “)


All Downloads/Hosters are compatible

Download 1
Turbobit.net
KatFile.com
Rapidgator.net
Download 2
Turbobit.net
KatFile.com
Rapidgator.net

Tracklist:

Jumpin' Jack Flash
1.1 - Jumpin' Jack Flash - 3:38
1.2 - Child Of The Moon - 3:12
Honky Tonk Women
2.1 - Honky Tonk Women - 3:01
2.2 - You Can't Always Get What You Want - 4:50
Street Fighting Man
3.1 - Street Fighting Man - 3:09
3.2 - No Expectations - 3:55
3.3 - Surprise Surprise - 2:32
3.4 - Everybody Needs Somebody To Love - 5:03
Memo From Turner
4.1 - –Mick Jagger - Memo From Turner - 4:08
4.2 - –Ry Cooder - Natural Magic - 1:39
Brown Sugar
5.1 - Brown Sugar - 3:50
5.2 - Bitch - 3:37
Wild Horses
6.1 - Wild Horses - 5:44
6.2 - Sway - 3:48
I Don't Know Why
7.1 - I Don't Know Why - 3:02
7.2 - Try A Little Harder - 2:17
Out Of Time
8.1 - Out Of Time - 3:22
8.2 - Jiving Sister Fanny - 3:20
Sympathy For The Devil (Remix)
9.1 - Sympathy For The Devil - 6:19
9.2 - Sympathy For The Devil (Neptunes Remix) - 5:55
9.3 - Sympathy For The Devil (Fatboy Slim Remix) - 8:25
9.4 - Sympathy For The Devil (Full Phatt Remix) - 5:33

EAC-Log, CUE-Sheed & NFO:

Click to open spoiler
Exact Audio Copy V1.3 from 2. September 2016

EAC extraction logfile from 4. February 2017, 21:13

The Rolling Stones / Singles 1968–1971: Jumpin’ Jack Flash (Disc 1)

Used drive : PLEXTOR DVDR PX-891SA Adapter: 1 ID: 0

Read mode : Secure
Utilize accurate stream : Yes
Defeat audio cache : Yes
Make use of C2 pointers : No

Read offset correction : 6
Overread into Lead-In and Lead-Out : No
Fill up missing offset samples with silence : Yes
Delete leading and trailing silent blocks : No
Null samples used in CRC calculations : Yes
Used interface : Native Win32 interface for Win NT & 2000

Used output format : User Defined Encoder
Selected bitrate : 128 kBit/s
Quality : High
Add ID3 tag : No
Command line compressor : C:\Program Files (x86)\Exact Audio Copy\Flac\flac.exe
Additional command line options : -V -8 -T “Genre=%genre%” -T “Artist=%artist%” -T “Title=%title%” -T “Album=%albumtitle%” -T “Date=%year%” -T “Tracknumber=%tracknr%” -T “Comment=%comment%” %source%

TOC of the extracted CD

Track | Start | Length | Start sector | End sector
———————————————————
1 | 0:00.00 | 3:38.02 | 0 | 16351
2 | 3:38.02 | 3:12.25 | 16352 | 30776

Range status and errors

Selected range

Filename H:\dafnaplus\Singles 1968-1971\01 Jumpin’ Jack Flash\The Rolling Stones – Singles 1968–1971- Jumpin’ Jack Flash (Disc 1).wav

Peak level 99.8 %
Extraction speed 2.1 X
Range quality 99.9 %
Test CRC 4544D0DD
Copy CRC 4544D0DD
Copy OK

No errors occurred

AccurateRip summary

Track 1 accurately ripped (confidence 3) [77FD3BEE] (AR v2)
Track 2 accurately ripped (confidence 2) [20FF86E5] (AR v2)

All tracks accurately ripped

End of status report

—- CUETools DB Plugin V2.1.6

[CTDB TOCID: gv6srEXxamuiXWAnBkh1n.Dq4hk-] found
Submit result: already submitted
Track | CTDB Status
1 | ( 9/17) Accurately ripped
2 | ( 9/17) Accurately ripped

==== Log checksum 330C6880AA86BD831F9ACEE5B4E65AFF659B9635E8639012DF9FB9D4BEC47340 ====

Exact Audio Copy V1.3 from 2. September 2016

EAC extraction logfile from 5. February 2017, 13:24

The Rolling Stones / Singles 1968–1971: Sympathy For The Devil (Disc 9)

Used drive : PLEXTOR DVDR PX-891SA Adapter: 1 ID: 0

Read mode : Secure
Utilize accurate stream : Yes
Defeat audio cache : Yes
Make use of C2 pointers : No

Read offset correction : 6
Overread into Lead-In and Lead-Out : No
Fill up missing offset samples with silence : Yes
Delete leading and trailing silent blocks : No
Null samples used in CRC calculations : Yes
Used interface : Native Win32 interface for Win NT & 2000

Used output format : User Defined Encoder
Selected bitrate : 128 kBit/s
Quality : High
Add ID3 tag : No
Command line compressor : C:\Program Files (x86)\Exact Audio Copy\Flac\flac.exe
Additional command line options : -V -8 -T “Genre=%genre%” -T “Artist=%artist%” -T “Title=%title%” -T “Album=%albumtitle%” -T “Date=%year%” -T “Tracknumber=%tracknr%” -T “Comment=%comment%” %source%

TOC of the extracted CD

Track | Start | Length | Start sector | End sector
———————————————————
1 | 0:00.00 | 6:18.47 | 0 | 28396
2 | 6:18.47 | 5:55.05 | 28397 | 55026
3 | 12:13.52 | 8:25.13 | 55027 | 92914
4 | 20:38.65 | 5:33.35 | 92915 | 117924
5 | 28:44.25 | 0:44.15 | 129325 | 132639

Range status and errors

Selected range

Filename H:\dafnaplus\Singles 1968-1971\09 Sympathy For The Devil\The Rolling Stones – Singles 1968–1971- Sympathy For The Devil (Disc 9).wav

Peak level 99.9 %
Extraction speed 6.9 X
Range quality 99.9 %
Test CRC 32F169E4
Copy CRC 32F169E4
Copy OK

No errors occurred

AccurateRip summary

Track 1 accurately ripped (confidence 2) [D8A04E1F] (AR v2)
Track 2 accurately ripped (confidence 2) [A93CC623] (AR v2)
Track 3 accurately ripped (confidence 2) [DD924900] (AR v2)
Track 4 accurately ripped (confidence 2) [5262C1BA] (AR v2)

All tracks accurately ripped

End of status report

—- CUETools DB Plugin V2.1.6

[CTDB TOCID: NGjUcQac2UeJvJI8O93ePfVpUMM-] found
Submit result: NGjUcQac2UeJvJI8O93ePfVpUMM- has been confirmed
Track | CTDB Status
1 | (17/17) Accurately ripped
2 | (17/17) Accurately ripped
3 | (17/17) Accurately ripped
4 | (17/17) Accurately ripped

==== Log checksum BEEA2FB1FDE4D86C0E31BADF7C14ED64D79647E9D13B85AAC5A10B6B029771A1 ====

Exact Audio Copy V1.3 from 2. September 2016

EAC extraction logfile from 4. February 2017, 23:21

The Rolling Stones / Singles 1968–1971: Street Fighting Man (Disc 2)

Used drive : PLEXTOR DVDR PX-891SA Adapter: 1 ID: 0

Read mode : Secure
Utilize accurate stream : Yes
Defeat audio cache : Yes
Make use of C2 pointers : No

Read offset correction : 6
Overread into Lead-In and Lead-Out : No
Fill up missing offset samples with silence : Yes
Delete leading and trailing silent blocks : No
Null samples used in CRC calculations : Yes
Used interface : Native Win32 interface for Win NT & 2000

Used output format : User Defined Encoder
Selected bitrate : 128 kBit/s
Quality : High
Add ID3 tag : No
Command line compressor : C:\Program Files (x86)\Exact Audio Copy\Flac\flac.exe
Additional command line options : -V -8 -T “Genre=%genre%” -T “Artist=%artist%” -T “Title=%title%” -T “Album=%albumtitle%” -T “Date=%year%” -T “Tracknumber=%tracknr%” -T “Comment=%comment%” %source%

TOC of the extracted CD

Track | Start | Length | Start sector | End sector
———————————————————
1 | 0:00.00 | 3:09.32 | 0 | 14206
2 | 3:09.32 | 3:55.03 | 14207 | 31834
3 | 7:04.35 | 2:31.40 | 31835 | 43199
4 | 9:36.00 | 5:03.02 | 43200 | 65926

Range status and errors

Selected range

Filename H:\dafnaplus\Singles 1968-1971\02 Street Fighting Man\The Rolling Stones – Singles 1968–1971- Street Fighting Man (Disc 2).wav

Peak level 99.8 %
Extraction speed 6.5 X
Range quality 100.0 %
Test CRC 80C3E06F
Copy CRC 80C3E06F
Copy OK

No errors occurred

AccurateRip summary

Track 1 accurately ripped (confidence 4) [EC66ABA3] (AR v2)
Track 2 accurately ripped (confidence 4) [2C08756F] (AR v2)
Track 3 accurately ripped (confidence 3) [6ECE2C12] (AR v2)
Track 4 accurately ripped (confidence 3) [021D4E67] (AR v2)

All tracks accurately ripped

End of status report

—- CUETools DB Plugin V2.1.6

[CTDB TOCID: lckLmG2mPd6eXCmCG60prHhGg78-] found
Submit result: lckLmG2mPd6eXCmCG60prHhGg78- has been confirmed
Track | CTDB Status
1 | ( 8/17) Accurately ripped
2 | ( 8/17) Accurately ripped
3 | ( 8/17) Accurately ripped
4 | ( 8/17) Accurately ripped

==== Log checksum CCA3A5B4D3B14A741457B838B34975C2E5E31755E9CBD897139AAA0B6FF9A3F1 ====

Exact Audio Copy V1.3 from 2. September 2016

EAC extraction logfile from 5. February 2017, 12:14

The Rolling Stones / Singles 1968–1971: I Don’t Know Why (Disc 7)

Used drive : PLEXTOR DVDR PX-891SA Adapter: 1 ID: 0

Read mode : Secure
Utilize accurate stream : Yes
Defeat audio cache : Yes
Make use of C2 pointers : No

Read offset correction : 6
Overread into Lead-In and Lead-Out : No
Fill up missing offset samples with silence : Yes
Delete leading and trailing silent blocks : No
Null samples used in CRC calculations : Yes
Used interface : Native Win32 interface for Win NT & 2000

Used output format : User Defined Encoder
Selected bitrate : 128 kBit/s
Quality : High
Add ID3 tag : No
Command line compressor : C:\Program Files (x86)\Exact Audio Copy\Flac\flac.exe
Additional command line options : -V -8 -T “Genre=%genre%” -T “Artist=%artist%” -T “Title=%title%” -T “Album=%albumtitle%” -T “Date=%year%” -T “Tracknumber=%tracknr%” -T “Comment=%comment%” %source%

TOC of the extracted CD

Track | Start | Length | Start sector | End sector
———————————————————
1 | 0:00.00 | 3:01.70 | 0 | 13644
2 | 3:01.70 | 2:17.17 | 13645 | 23936

Range status and errors

Selected range

Filename H:\dafnaplus\Singles 1968-1971\07 I Don’t Know Why\The Rolling Stones – Singles 1968–1971- I Don’t Know Why (Disc 7).wav

Peak level 94.6 %
Extraction speed 2.1 X
Range quality 100.0 %
Test CRC 7D0F913B
Copy CRC 7D0F913B
Copy OK

No errors occurred

AccurateRip summary

Track 1 accurately ripped (confidence 2) [570CCDB1] (AR v2)
Track 2 accurately ripped (confidence 2) [194389B1] (AR v2)

All tracks accurately ripped

End of status report

—- CUETools DB Plugin V2.1.6

[CTDB TOCID: 2ObvuRC4qzso1d.KjyjWoWW9Yl8-] found
Submit result: 2ObvuRC4qzso1d.KjyjWoWW9Yl8- has been confirmed
Track | CTDB Status
1 | ( 9/16) Accurately ripped
2 | ( 9/16) Accurately ripped

==== Log checksum 9D0EBA3B604A29E8CFE9C5C5E871463B4C45EECC95591259368BE3CA8FD0B6BD ====

Exact Audio Copy V1.3 from 2. September 2016

EAC extraction logfile from 5. February 2017, 11:43

The Rolling Stones / Singles 1968–1971: Memo From Turner (Disc 4)

Used drive : PLEXTOR DVDR PX-891SA Adapter: 1 ID: 0

Read mode : Secure
Utilize accurate stream : Yes
Defeat audio cache : Yes
Make use of C2 pointers : No

Read offset correction : 6
Overread into Lead-In and Lead-Out : No
Fill up missing offset samples with silence : Yes
Delete leading and trailing silent blocks : No
Null samples used in CRC calculations : Yes
Used interface : Native Win32 interface for Win NT & 2000

Used output format : User Defined Encoder
Selected bitrate : 128 kBit/s
Quality : High
Add ID3 tag : No
Command line compressor : C:\Program Files (x86)\Exact Audio Copy\Flac\flac.exe
Additional command line options : -V -8 -T “Genre=%genre%” -T “Artist=%artist%” -T “Title=%title%” -T “Album=%albumtitle%” -T “Date=%year%” -T “Tracknumber=%tracknr%” -T “Comment=%comment%” %source%

TOC of the extracted CD

Track | Start | Length | Start sector | End sector
———————————————————
1 | 0:00.00 | 4:08.17 | 0 | 18616
2 | 4:08.17 | 1:39.33 | 18617 | 26074

Range status and errors

Selected range

Filename H:\dafnaplus\Singles 1968-1971\04 Memo From Turner\The Rolling Stones – Singles 1968–1971- Memo From Turner (Disc 4).wav

Peak level 99.8 %
Extraction speed 2.2 X
Range quality 100.0 %
Test CRC 8957681D
Copy CRC 8957681D
Copy OK

No errors occurred

AccurateRip summary

Track 1 accurately ripped (confidence 2) [CDE12786] (AR v2)
Track 2 accurately ripped (confidence 2) [C23F7D57] (AR v2)

All tracks accurately ripped

End of status report

—- CUETools DB Plugin V2.1.6

[CTDB TOCID: 3KdF7slfT5mA7uDQyNi2pwkL9Aw-] found
Submit result: 3KdF7slfT5mA7uDQyNi2pwkL9Aw- has been confirmed
Track | CTDB Status
1 | ( 8/17) Accurately ripped
2 | ( 8/17) Accurately ripped

==== Log checksum 888BDB99363F1FAD02AC5B7CD9282AD8A9C6404AF541A4D5476E17808C239249 ====

Exact Audio Copy V1.3 from 2. September 2016

EAC extraction logfile from 4. February 2017, 23:30

The Rolling Stones / Singles 1968–1971: Honky Tonk Women (Disc 3)

Used drive : PLEXTOR DVDR PX-891SA Adapter: 1 ID: 0

Read mode : Secure
Utilize accurate stream : Yes
Defeat audio cache : Yes
Make use of C2 pointers : No

Read offset correction : 6
Overread into Lead-In and Lead-Out : No
Fill up missing offset samples with silence : Yes
Delete leading and trailing silent blocks : No
Null samples used in CRC calculations : Yes
Used interface : Native Win32 interface for Win NT & 2000

Used output format : User Defined Encoder
Selected bitrate : 128 kBit/s
Quality : High
Add ID3 tag : No
Command line compressor : C:\Program Files (x86)\Exact Audio Copy\Flac\flac.exe
Additional command line options : -V -8 -T “Genre=%genre%” -T “Artist=%artist%” -T “Title=%title%” -T “Album=%albumtitle%” -T “Date=%year%” -T “Tracknumber=%tracknr%” -T “Comment=%comment%” %source%

TOC of the extracted CD

Track | Start | Length | Start sector | End sector
———————————————————
1 | 0:00.00 | 3:01.27 | 0 | 13601
2 | 3:01.27 | 4:49.48 | 13602 | 35324

Range status and errors

Selected range

Filename H:\dafnaplus\Singles 1968-1971\03 Honky Tonk Women\The Rolling Stones – Singles 1968–1971- Honky Tonk Women (Disc 3).wav

Peak level 99.8 %
Extraction speed 6.0 X
Range quality 100.0 %
Test CRC 1783094A
Copy CRC 1783094A
Copy OK

No errors occurred

AccurateRip summary

Track 1 accurately ripped (confidence 3) [16387E73] (AR v2)
Track 2 accurately ripped (confidence 3) [F6622117] (AR v2)

All tracks accurately ripped

End of status report

—- CUETools DB Plugin V2.1.6

[CTDB TOCID: 60w0kAQl1643PRNcqFbTyulqLUs-] found
Submit result: 60w0kAQl1643PRNcqFbTyulqLUs- has been confirmed
Track | CTDB Status
1 | ( 8/16) Accurately ripped
2 | ( 8/16) Accurately ripped

==== Log checksum 30C8B72CA092070FC0C35D257311F1735C442C9B17DFC9FCCED1D07D5527FAA5 ====

Exact Audio Copy V1.3 from 2. September 2016

EAC extraction logfile from 5. February 2017, 12:01

The Rolling Stones / Singles 1968–1971: Wild Horses (Disc 6)

Used drive : PLEXTOR DVDR PX-891SA Adapter: 1 ID: 0

Read mode : Secure
Utilize accurate stream : Yes
Defeat audio cache : Yes
Make use of C2 pointers : No

Read offset correction : 6
Overread into Lead-In and Lead-Out : No
Fill up missing offset samples with silence : Yes
Delete leading and trailing silent blocks : No
Null samples used in CRC calculations : Yes
Used interface : Native Win32 interface for Win NT & 2000

Used output format : User Defined Encoder
Selected bitrate : 128 kBit/s
Quality : High
Add ID3 tag : No
Command line compressor : C:\Program Files (x86)\Exact Audio Copy\Flac\flac.exe
Additional command line options : -V -8 -T “Genre=%genre%” -T “Artist=%artist%” -T “Title=%title%” -T “Album=%albumtitle%” -T “Date=%year%” -T “Tracknumber=%tracknr%” -T “Comment=%comment%” %source%

TOC of the extracted CD

Track | Start | Length | Start sector | End sector
———————————————————
1 | 0:00.00 | 5:44.20 | 0 | 25819
2 | 5:44.20 | 3:47.65 | 25820 | 42909

Range status and errors

Selected range

Filename H:\dafnaplus\Singles 1968-1971\06 Wild Horses\The Rolling Stones – Singles 1968–1971- Wild Horses (Disc 6).wav

Peak level 94.4 %
Extraction speed 6.0 X
Range quality 100.0 %
Test CRC F22808D2
Copy CRC F22808D2
Copy OK

No errors occurred

AccurateRip summary

Track 1 accurately ripped (confidence 3) [E72DB10D] (AR v2)
Track 2 accurately ripped (confidence 2) [F0771718] (AR v2)

All tracks accurately ripped

End of status report

—- CUETools DB Plugin V2.1.6

[CTDB TOCID: YLpunc7qohsITUuXaT9938Amh5o-] found
Submit result: YLpunc7qohsITUuXaT9938Amh5o- has been confirmed
Track | CTDB Status
1 | ( 8/16) Accurately ripped
2 | ( 8/16) Accurately ripped

==== Log checksum D4BCDA85EE347E9065F40BF793BEAAC21DEB193A6AB32B8AB79EA64844E29ED2 ====

Exact Audio Copy V1.3 from 2. September 2016

EAC extraction logfile from 5. February 2017, 13:10

The Rolling Stones / Singles 1968–1971: Out Of Time (Disc 8)

Used drive : PLEXTOR DVDR PX-891SA Adapter: 1 ID: 0

Read mode : Secure
Utilize accurate stream : Yes
Defeat audio cache : Yes
Make use of C2 pointers : No

Read offset correction : 6
Overread into Lead-In and Lead-Out : No
Fill up missing offset samples with silence : Yes
Delete leading and trailing silent blocks : No
Null samples used in CRC calculations : Yes
Used interface : Native Win32 interface for Win NT & 2000

Used output format : User Defined Encoder
Selected bitrate : 128 kBit/s
Quality : High
Add ID3 tag : No
Command line compressor : C:\Program Files (x86)\Exact Audio Copy\Flac\flac.exe
Additional command line options : -V -8 -T “Genre=%genre%” -T “Artist=%artist%” -T “Title=%title%” -T “Album=%albumtitle%” -T “Date=%year%” -T “Tracknumber=%tracknr%” -T “Comment=%comment%” %source%

TOC of the extracted CD

Track | Start | Length | Start sector | End sector
———————————————————
1 | 0:00.00 | 3:21.72 | 0 | 15146
2 | 3:21.72 | 3:20.15 | 15147 | 30161

Range status and errors

Selected range

Filename H:\dafnaplus\Singles 1968-1971\08 Out Of Time\The Rolling Stones – Singles 1968–1971- Out Of Time (Disc 8).wav

Peak level 99.8 %
Extraction speed 2.2 X
Range quality 100.0 %
Test CRC C878424D
Copy CRC C878424D
Copy OK

No errors occurred

AccurateRip summary

Track 1 accurately ripped (confidence 3) [9A8C6A2B] (AR v2)
Track 2 accurately ripped (confidence 2) [E5430C21] (AR v2)

All tracks accurately ripped

End of status report

—- CUETools DB Plugin V2.1.6

[CTDB TOCID: 5O0ItXKDp96eaU5YJjCyklHvTn0-] found
Submit result: 5O0ItXKDp96eaU5YJjCyklHvTn0- has been confirmed
Track | CTDB Status
1 | ( 8/16) Accurately ripped
2 | ( 8/16) Accurately ripped

==== Log checksum 80998F0C596DFF946A39F4C7D14108A47661785974F4057C695F6CB08049E22F ====

Exact Audio Copy V1.3 from 2. September 2016

EAC extraction logfile from 5. February 2017, 11:53

The Rolling Stones / Singles 1968–1971: Brown Sugar (Disc 5)

Used drive : PLEXTOR DVDR PX-891SA Adapter: 1 ID: 0

Read mode : Secure
Utilize accurate stream : Yes
Defeat audio cache : Yes
Make use of C2 pointers : No

Read offset correction : 6
Overread into Lead-In and Lead-Out : No
Fill up missing offset samples with silence : Yes
Delete leading and trailing silent blocks : No
Null samples used in CRC calculations : Yes
Used interface : Native Win32 interface for Win NT & 2000

Used output format : User Defined Encoder
Selected bitrate : 128 kBit/s
Quality : High
Add ID3 tag : No
Command line compressor : C:\Program Files (x86)\Exact Audio Copy\Flac\flac.exe
Additional command line options : -V -8 -T “Genre=%genre%” -T “Artist=%artist%” -T “Title=%title%” -T “Album=%albumtitle%” -T “Date=%year%” -T “Tracknumber=%tracknr%” -T “Comment=%comment%” %source%

TOC of the extracted CD

Track | Start | Length | Start sector | End sector
———————————————————
1 | 0:00.00 | 3:49.67 | 0 | 17241
2 | 3:49.67 | 3:36.60 | 17242 | 33501

Range status and errors

Selected range

Filename H:\dafnaplus\Singles 1968-1971\05 Brown Sugar\The Rolling Stones – Singles 1968–1971- Brown Sugar (Disc 5).wav

Peak level 97.7 %
Extraction speed 2.3 X
Range quality 100.0 %
Test CRC 3479828C
Copy CRC 3479828C
Copy OK

No errors occurred

AccurateRip summary

Track 1 accurately ripped (confidence 3) [212430E4] (AR v2)
Track 2 accurately ripped (confidence 2) [A056C739] (AR v2)

All tracks accurately ripped

End of status report

—- CUETools DB Plugin V2.1.6

[CTDB TOCID: lyUgddwWPAYsMboPuTXGGJtzBo4-] found
Submit result: lyUgddwWPAYsMboPuTXGGJtzBo4- has been confirmed
Track | CTDB Status
1 | ( 8/16) Accurately ripped
2 | (16/16) Accurately ripped

==== Log checksum F5778C19B477CA9DA1FA4C4378351461E3C64E74D7240980F4CE339FB8559DA9 ====

REM GENRE Rock
REM DATE 2005
REM DISCID 0E013F02
REM COMMENT “ExactAudioCopy v1.3”
PERFORMER “The Rolling Stones”
TITLE “Singles 1968–1971: I Don’t Know Why (Disc 7)”
REM COMPOSER “”
FILE “The Rolling Stones – Singles 1968–1971- I Don’t Know Why (Disc 7).flac” WAVE
TRACK 01 AUDIO
TITLE “I Don’t Know Why”
PERFORMER “The Rolling Stones”
REM COMPOSER “”
INDEX 01 00:00:00
TRACK 02 AUDIO
TITLE “Try A Little Harder”
PERFORMER “The Rolling Stones”
REM COMPOSER “”
INDEX 00 03:00:60
INDEX 01 03:01:70

REM GENRE Rock
REM DATE 2005
REM DISCID 0F023C02
REM COMMENT “ExactAudioCopy v1.3”
PERFORMER “The Rolling Stones”
TITLE “Singles 1968–1971: Wild Horses (Disc 6)”
REM COMPOSER “”
FILE “The Rolling Stones – Singles 1968–1971- Wild Horses (Disc 6).flac” WAVE
TRACK 01 AUDIO
TITLE “Wild Horses ”
PERFORMER “The Rolling Stones”
REM COMPOSER “”
INDEX 01 00:00:00
TRACK 02 AUDIO
TITLE “Sway ”
PERFORMER “The Rolling Stones”
REM COMPOSER “”
INDEX 00 05:42:57
INDEX 01 05:44:20

REM GENRE Rock
REM DATE 2005
REM DISCID 0801BE02
REM COMMENT “ExactAudioCopy v1.3”
PERFORMER “The Rolling Stones”
TITLE “Singles 1968–1971: Brown Sugar (Disc 5)”
REM COMPOSER “”
FILE “The Rolling Stones – Singles 1968–1971- Brown Sugar (Disc 5).flac” WAVE
TRACK 01 AUDIO
TITLE “Brown Sugar”
PERFORMER “The Rolling Stones”
REM COMPOSER “”
INDEX 01 00:00:00
TRACK 02 AUDIO
TITLE “Bitch”
PERFORMER “The Rolling Stones”
REM COMPOSER “”
INDEX 00 03:49:25
INDEX 01 03:49:67

REM GENRE Rock
REM DATE 2005
REM DISCID 07019202
REM COMMENT “ExactAudioCopy v1.3”
PERFORMER “The Rolling Stones”
TITLE “Singles 1968–1971: Out Of Time (Disc 8)”
REM COMPOSER “”
FILE “The Rolling Stones – Singles 1968–1971- Out Of Time (Disc 8).flac” WAVE
TRACK 01 AUDIO
TITLE “Out Of Time”
PERFORMER “The Rolling Stones”
REM COMPOSER “”
INDEX 01 00:00:00
TRACK 02 AUDIO
TITLE “Jiving Sister Fanny”
PERFORMER “The Rolling Stones”
REM COMPOSER “”
INDEX 01 03:21:72

REM GENRE Rock
REM DATE 2005
REM DISCID 3306E805
REM COMMENT “ExactAudioCopy v1.3”
PERFORMER “The Rolling Stones”
TITLE “Singles 1968–1971: Sympathy For The Devil (Disc 9)”
REM COMPOSER “”
FILE “The Rolling Stones – Singles 1968–1971- Sympathy For The Devil (Disc 9).flac” WAVE
TRACK 01 AUDIO
TITLE “Sympathy For The Devil (Original Recording)”
PERFORMER “Rolling Stones, The”
REM COMPOSER “”
INDEX 01 00:00:00
TRACK 02 AUDIO
TITLE “Sympathy For The Devil (Neptune Remix)”
PERFORMER “Rolling Stones, The”
REM COMPOSER “”
INDEX 00 06:17:22
INDEX 01 06:18:47
TRACK 03 AUDIO
TITLE “Sympathy For The Devil (Fat Boy Slim Remix)”
PERFORMER “Rolling Stones, The”
REM COMPOSER “”
INDEX 00 12:11:17
INDEX 01 12:13:52
TRACK 04 AUDIO
TITLE “Sympathy For The Devil (Full Phatt Remix)”
PERFORMER “Rolling Stones, The”
REM COMPOSER “”
INDEX 00 20:36:10
INDEX 01 20:38:65

REM GENRE Rock
REM DATE 2005
REM DISCID 2D036F04
REM COMMENT “ExactAudioCopy v1.3”
PERFORMER “The Rolling Stones”
TITLE “Singles 1968–1971: Street Fighting Man (Disc 2)”
REM COMPOSER “”
FILE “The Rolling Stones – Singles 1968–1971- Street Fighting Man (Disc 2).flac” WAVE
TRACK 01 AUDIO
TITLE “Street Fighting Man”
PERFORMER “The Rolling Stones”
REM COMPOSER “”
INDEX 01 00:00:00
TRACK 02 AUDIO
TITLE “No Expectations”
PERFORMER “The Rolling Stones”
REM COMPOSER “”
INDEX 00 03:07:50
INDEX 01 03:09:32
TRACK 03 AUDIO
TITLE “Surprise, Surprise ”
PERFORMER “The Rolling Stones”
REM COMPOSER “”
INDEX 00 07:03:67
INDEX 01 07:04:35
TRACK 04 AUDIO
TITLE “Everybody Needs Somebody To Love”
PERFORMER “The Rolling Stones”
REM COMPOSER “”
INDEX 00 09:34:15
INDEX 01 09:36:00

REM GENRE Rock
REM DATE 2005
REM DISCID 09015B02
REM COMMENT “ExactAudioCopy v1.3”
PERFORMER “The Rolling Stones”
TITLE “Singles 1968–1971: Memo From Turner (Disc 4)”
REM COMPOSER “”
FILE “The Rolling Stones – Singles 1968–1971- Memo From Turner (Disc 4).flac” WAVE
TRACK 01 AUDIO
TITLE “Memo From Turner”
PERFORMER “The Rolling Stones”
REM COMPOSER “”
INDEX 01 00:00:00
TRACK 02 AUDIO
TITLE “Natural Magic (Ry Cooder Instrumental)”
PERFORMER “The Rolling Stones”
REM COMPOSER “”
INDEX 00 04:06:50
INDEX 01 04:08:17

REM GENRE Rock
REM DATE 2005
REM DISCID 0E01D702
REM COMMENT “ExactAudioCopy v1.3”
PERFORMER “The Rolling Stones”
TITLE “Singles 1968–1971: Honky Tonk Women (Disc 3)”
REM COMPOSER “”
FILE “The Rolling Stones – Singles 1968–1971- Honky Tonk Women (Disc 3).flac” WAVE
TRACK 01 AUDIO
TITLE “Honky Tonk Women”
PERFORMER “The Rolling Stones”
REM COMPOSER “”
INDEX 01 00:00:00
TRACK 02 AUDIO
TITLE “You Can’t Always Get What You Want ”
PERFORMER “The Rolling Stones”
REM COMPOSER “”
INDEX 00 02:59:45
INDEX 01 03:01:27

REM GENRE Rock
REM DATE 2005
REM DISCID 06019A02
REM COMMENT “ExactAudioCopy v1.3”
PERFORMER “The Rolling Stones”
TITLE “Singles 1968–1971: Jumpin’ Jack Flash (Disc 1)”
REM COMPOSER “”
FILE “The Rolling Stones – Singles 1968–1971- Jumpin’ Jack Flash (Disc 1).flac” WAVE
TRACK 01 AUDIO
TITLE “Jumpin’ Jack Flash”
PERFORMER “The Rolling Stones”
REM COMPOSER “”
INDEX 01 00:00:00
TRACK 02 AUDIO
TITLE “Child Of The Moon”
PERFORMER “The Rolling Stones”
REM COMPOSER “”
INDEX 00 03:38:00
INDEX 01 03:38:02


Leave a Reply

Your email address will not be published. Required fields are marked *

This site uses Akismet to reduce spam. Learn how your comment data is processed.