The Rolling Stones – Singles 1965-1967




Artist: The Rolling Stones
Year: 2004
Genre: Rock
Notes: Discogs
Add. Notes:
Cover incl.: Yes
Encoder: FLAC
Bitrate: ~700 kBit/s (44.1 kHz/16 Bit/s)
Log & Cue incl.: Yes
Size: 880,08 MB
Password: “slam” (without ” “)


All Downloads/Hosters are compatible

Download 1
Turbobit.net
KatFile.com
Rapidgator.net
Download 2
Turbobit.net
KatFile.com
Rapidgator.net

Tracklist:

(I Can't Get No) Satisfaction
1-1 - (I Can't Get No) Satisfaction - 3:43
1-2 - The Under Assistant West Coast Promotion Man - 
3:08
1-3 - The Spider And The Fly - 3:38
Get Off Of My Cloud
2-1 - Get Off Of My Cloud - 2:55
2-2 - I'm Free - 2:24
2-3 - The Singer Not The Song - 2:22
As Tears Go By
3-1 - As Tears Go By - 2:46
3-2 - Gotta Get Away - 2:07
19th Nervous Breakdown
4-1 - 19th Nervous Breakdown - 3:58
4-2 - Sad Day - 3:02
Paint It Black
5-1 - Paint It Black - 3:46
5-2 - Stupid Girl - 2:57
5-3 - Long Long While - 3:01
Mother's Little Helper
6-1 - Mother's Little Helper - 2:48
6-2 - Lady Jane - 3:10
Have You Seen Your Mother Baby, Standing In The 
Shadow
7-1 - Have You Seen Your Mother Baby, Standing In The 
Shadow - 2:36
7-2 - Who's Driving Your Plane? - 3:14
Let's Spend The Night Together
8-1 - Let's Spend The Night Together - 3:27
8-2 - Ruby Tuesday - 3:13
We Love You
9-1 - We Love You - 4:38
9-2 - Dandelion - 3:48
She's A Rainbow
10-1 - She's A Rainbow - 4:13
10-2 - 2000 Light Years From Home - 4:45
In Another Land
11-1 - In Another Land - 2:54
11-2 - The Lantern - 4:26

EAC-Log, CUE-Sheed & NFO:

Click to open spoiler
Exact Audio Copy V1.3 from 2. September 2016

EAC extraction logfile from 11. February 2017, 22:46

The Rolling Stones / Singles 1965–1967: She’s A Rainbow (Disc 10)

Used drive : PLEXTOR DVDR PX-891SA Adapter: 1 ID: 0

Read mode : Secure
Utilize accurate stream : Yes
Defeat audio cache : Yes
Make use of C2 pointers : No

Read offset correction : 6
Overread into Lead-In and Lead-Out : No
Fill up missing offset samples with silence : Yes
Delete leading and trailing silent blocks : No
Null samples used in CRC calculations : Yes
Used interface : Native Win32 interface for Win NT & 2000

Used output format : User Defined Encoder
Selected bitrate : 128 kBit/s
Quality : High
Add ID3 tag : No
Command line compressor : C:\Program Files (x86)\Exact Audio Copy\Flac\flac.exe
Additional command line options : -V -8 -T “Genre=%genre%” -T “Artist=%artist%” -T “Title=%title%” -T “Album=%albumtitle%” -T “Date=%year%” -T “Tracknumber=%tracknr%” -T “Comment=%comment%” %source%

TOC of the extracted CD

Track | Start | Length | Start sector | End sector
———————————————————
1 | 0:00.00 | 4:12.50 | 0 | 18949
2 | 4:12.50 | 4:44.40 | 18950 | 40289

Range status and errors

Selected range

Filename H:\dafnaplus\Singles 1965-1967\10 She’s A Rainbow\The Rolling Stones – Singles 1965–1967- She’s A Rainbow (Disc 10).wav

Peak level 99.8 %
Extraction speed 1.9 X
Range quality 99.9 %
Test CRC CF2F5DE9
Copy CRC CF2F5DE9
Copy OK

No errors occurred

AccurateRip summary

Track 1 accurately ripped (confidence 5) [86DECA0B] (AR v2)
Track 2 accurately ripped (confidence 5) [E540A9D9] (AR v2)

All tracks accurately ripped

End of status report

—- CUETools DB Plugin V2.1.6

[CTDB TOCID: bkaV0CDWJeJVZLn3l2V01Yh7j3I-] found
Submit result: bkaV0CDWJeJVZLn3l2V01Yh7j3I- has been confirmed
Track | CTDB Status
1 | (10/20) Accurately ripped
2 | (10/20) Accurately ripped

==== Log checksum 9DAEC5AFFBD6B31E95F7DDBF1FA2F66384928BBB88864A9E2542A37466661DA7 ====

Exact Audio Copy V1.3 from 2. September 2016

EAC extraction logfile from 11. February 2017, 13:30

The Rolling Stones / Singles 1965–1967: As Tears Go By (Disc 3)

Used drive : PLEXTOR DVDR PX-891SA Adapter: 1 ID: 0

Read mode : Secure
Utilize accurate stream : Yes
Defeat audio cache : Yes
Make use of C2 pointers : No

Read offset correction : 6
Overread into Lead-In and Lead-Out : No
Fill up missing offset samples with silence : Yes
Delete leading and trailing silent blocks : No
Null samples used in CRC calculations : Yes
Used interface : Native Win32 interface for Win NT & 2000

Used output format : User Defined Encoder
Selected bitrate : 128 kBit/s
Quality : High
Add ID3 tag : No
Command line compressor : C:\Program Files (x86)\Exact Audio Copy\Flac\flac.exe
Additional command line options : -V -8 -T “Genre=%genre%” -T “Artist=%artist%” -T “Title=%title%” -T “Album=%albumtitle%” -T “Date=%year%” -T “Tracknumber=%tracknr%” -T “Comment=%comment%” %source%

TOC of the extracted CD

Track | Start | Length | Start sector | End sector
———————————————————
1 | 0:00.00 | 2:45.62 | 0 | 12436
2 | 2:45.62 | 2:06.41 | 12437 | 21927

Range status and errors

Selected range

Filename H:\dafnaplus\Singles 1965-1967\03 As Tears Go By\The Rolling Stones – Singles 1965–1967- As Tears Go By (Disc 3).wav

Peak level 96.6 %
Extraction speed 4.8 X
Range quality 100.0 %
Test CRC BB1CF143
Copy CRC BB1CF143
Copy OK

No errors occurred

AccurateRip summary

Track 1 accurately ripped (confidence 5) [69D5D6EA] (AR v2)
Track 2 accurately ripped (confidence 4) [CAC5B243] (AR v2)

All tracks accurately ripped

End of status report

—- CUETools DB Plugin V2.1.6

[CTDB TOCID: xb8r2wBjVkYqYHEyvGGKWkyqbeQ-] found
Submit result: xb8r2wBjVkYqYHEyvGGKWkyqbeQ- has been confirmed
Track | CTDB Status
1 | (11/11) Accurately ripped
2 | (11/11) Accurately ripped

==== Log checksum 493BA6D630CBF5711DB1F720E33364A63BC5E4372FD2252667C801FF6CF8A76C ====

Exact Audio Copy V1.3 from 2. September 2016

EAC extraction logfile from 11. February 2017, 18:17

The Rolling Stones / Singles 1965–1967: We Love Your (Disc 9)

Used drive : PLEXTOR DVDR PX-891SA Adapter: 1 ID: 0

Read mode : Secure
Utilize accurate stream : Yes
Defeat audio cache : Yes
Make use of C2 pointers : No

Read offset correction : 6
Overread into Lead-In and Lead-Out : No
Fill up missing offset samples with silence : Yes
Delete leading and trailing silent blocks : No
Null samples used in CRC calculations : Yes
Used interface : Native Win32 interface for Win NT & 2000

Used output format : User Defined Encoder
Selected bitrate : 128 kBit/s
Quality : High
Add ID3 tag : No
Command line compressor : C:\Program Files (x86)\Exact Audio Copy\Flac\flac.exe
Additional command line options : -V -8 -T “Genre=%genre%” -T “Artist=%artist%” -T “Title=%title%” -T “Album=%albumtitle%” -T “Date=%year%” -T “Tracknumber=%tracknr%” -T “Comment=%comment%” %source%

TOC of the extracted CD

Track | Start | Length | Start sector | End sector
———————————————————
1 | 0:00.00 | 4:38.17 | 0 | 20866
2 | 4:38.17 | 3:47.73 | 20867 | 37964

Range status and errors

Selected range

Filename H:\dafnaplus\Singles 1965-1967\09 We Love You\The Rolling Stones – Singles 1965–1967- We Love Your (Disc 9).wav

Peak level 99.8 %
Extraction speed 5.3 X
Range quality 100.0 %
Test CRC FA757DC7
Copy CRC FA757DC7
Copy OK

No errors occurred

AccurateRip summary

Track 1 accurately ripped (confidence 5) [94A26108] (AR v2)
Track 2 accurately ripped (confidence 5) [C4E5B36B] (AR v2)

All tracks accurately ripped

End of status report

—- CUETools DB Plugin V2.1.6

[CTDB TOCID: 68CML5cj2OXlmkftvEMpdVJFD_4-] found
Submit result: 68CML5cj2OXlmkftvEMpdVJFD_4- has been confirmed
Track | CTDB Status
1 | (10/20) Accurately ripped
2 | (10/20) Accurately ripped

==== Log checksum 2F451BF0C9E18400EB7DE1B20F6E7AD8C2507FD11207BACF3E7F6BFD8BC85442 ====

Exact Audio Copy V1.3 from 2. September 2016

EAC extraction logfile from 11. February 2017, 10:56

The Rolling Stones / Singles 1965–1967: (I Can’t Get No) Satisfaction (Disc 1)

Used drive : PLEXTOR DVDR PX-891SA Adapter: 1 ID: 0

Read mode : Secure
Utilize accurate stream : Yes
Defeat audio cache : Yes
Make use of C2 pointers : No

Read offset correction : 6
Overread into Lead-In and Lead-Out : No
Fill up missing offset samples with silence : Yes
Delete leading and trailing silent blocks : No
Null samples used in CRC calculations : Yes
Used interface : Native Win32 interface for Win NT & 2000

Used output format : User Defined Encoder
Selected bitrate : 128 kBit/s
Quality : High
Add ID3 tag : No
Command line compressor : C:\Program Files (x86)\Exact Audio Copy\Flac\flac.exe
Additional command line options : -V -8 -T “Genre=%genre%” -T “Artist=%artist%” -T “Title=%title%” -T “Album=%albumtitle%” -T “Date=%year%” -T “Tracknumber=%tracknr%” -T “Comment=%comment%” %source%

TOC of the extracted CD

Track | Start | Length | Start sector | End sector
———————————————————
1 | 0:00.00 | 3:43.07 | 0 | 16731
2 | 3:43.07 | 3:08.30 | 16732 | 30861
3 | 6:51.37 | 3:38.03 | 30862 | 47214

Range status and errors

Selected range

Filename H:\dafnaplus\Singles 1965-1967\01 (I Can’t Get No) Satisfaction\The Rolling Stones – Singles 1965–1967- (I Can’t Get No) Satisfaction (Disc 1).wav

Peak level 99.8 %
Extraction speed 5.5 X
Range quality 100.0 %
Test CRC A0A77748
Copy CRC A0A77748
Copy OK

No errors occurred

AccurateRip summary

Track 1 accurately ripped (confidence 5) [4534BF4C] (AR v2)
Track 2 accurately ripped (confidence 4) [8D13C100] (AR v2)
Track 3 accurately ripped (confidence 4) [7CC512EB] (AR v2)

All tracks accurately ripped

End of status report

—- CUETools DB Plugin V2.1.6

[CTDB TOCID: uq5Mf6XjbPTf62uHsSWowo5wQxY-] found
Submit result: uq5Mf6XjbPTf62uHsSWowo5wQxY- has been confirmed
Track | CTDB Status
1 | (11/20) Accurately ripped
2 | (11/20) Accurately ripped
3 | (11/20) Accurately ripped

==== Log checksum 63C78C961576E01ADEB248AC9C8F10FC474E6F571EC021D35C22C469812B2162 ====

Exact Audio Copy V1.3 from 2. September 2016

EAC extraction logfile from 11. February 2017, 12:18

The Rolling Stones / Singles 1965–1967: Get Off Of My Cloud (Disc 2)

Used drive : PLEXTOR DVDR PX-891SA Adapter: 1 ID: 0

Read mode : Secure
Utilize accurate stream : Yes
Defeat audio cache : Yes
Make use of C2 pointers : No

Read offset correction : 6
Overread into Lead-In and Lead-Out : No
Fill up missing offset samples with silence : Yes
Delete leading and trailing silent blocks : No
Null samples used in CRC calculations : Yes
Used interface : Native Win32 interface for Win NT & 2000

Used output format : User Defined Encoder
Selected bitrate : 128 kBit/s
Quality : High
Add ID3 tag : No
Command line compressor : C:\Program Files (x86)\Exact Audio Copy\Flac\flac.exe
Additional command line options : -V -8 -T “Genre=%genre%” -T “Artist=%artist%” -T “Title=%title%” -T “Album=%albumtitle%” -T “Date=%year%” -T “Tracknumber=%tracknr%” -T “Comment=%comment%” %source%

TOC of the extracted CD

Track | Start | Length | Start sector | End sector
———————————————————
1 | 0:00.00 | 2:54.50 | 0 | 13099
2 | 2:54.50 | 2:24.13 | 13100 | 23912
3 | 5:18.63 | 2:22.25 | 23913 | 34587

Range status and errors

Selected range

Filename H:\dafnaplus\Singles 1965-1967\02 Get Off Of My Cloud\The Rolling Stones – Singles 1965–1967- Get Off Of My Cloud (Disc 2).wav

Peak level 99.8 %
Extraction speed 4.9 X
Range quality 99.9 %
Test CRC FFBB7DE2
Copy CRC FFBB7DE2
Copy OK

No errors occurred

AccurateRip summary

Track 1 accurately ripped (confidence 5) [AF418191] (AR v2)
Track 2 accurately ripped (confidence 5) [7FF15696] (AR v2)
Track 3 accurately ripped (confidence 4) [DD4A0858] (AR v2)

All tracks accurately ripped

End of status report

—- CUETools DB Plugin V2.1.6

[CTDB TOCID: tQtl3GQZpnJ1g8YrSAXPn.mrmD8-] found
Submit result: tQtl3GQZpnJ1g8YrSAXPn.mrmD8- has been confirmed
Track | CTDB Status
1 | (10/10) Accurately ripped
2 | (10/10) Accurately ripped
3 | (10/10) Accurately ripped

==== Log checksum 9902CF9DFEDE2061135F98699531A4DFBDDDB98F3D2DA7F03B38F4F73F47D093 ====

Exact Audio Copy V1.3 from 2. September 2016

EAC extraction logfile from 11. February 2017, 18:06

The Rolling Stones / Singles 1965–1967: Let’s Spend The Night Together (Disc 8)

Used drive : PLEXTOR DVDR PX-891SA Adapter: 1 ID: 0

Read mode : Secure
Utilize accurate stream : Yes
Defeat audio cache : Yes
Make use of C2 pointers : No

Read offset correction : 6
Overread into Lead-In and Lead-Out : No
Fill up missing offset samples with silence : Yes
Delete leading and trailing silent blocks : No
Null samples used in CRC calculations : Yes
Used interface : Native Win32 interface for Win NT & 2000

Used output format : User Defined Encoder
Selected bitrate : 128 kBit/s
Quality : High
Add ID3 tag : No
Command line compressor : C:\Program Files (x86)\Exact Audio Copy\Flac\flac.exe
Additional command line options : -V -8 -T “Genre=%genre%” -T “Artist=%artist%” -T “Title=%title%” -T “Album=%albumtitle%” -T “Date=%year%” -T “Tracknumber=%tracknr%” -T “Comment=%comment%” %source%

TOC of the extracted CD

Track | Start | Length | Start sector | End sector
———————————————————
1 | 0:00.00 | 3:27.35 | 0 | 15559
2 | 3:27.35 | 3:13.30 | 15560 | 30064

Range status and errors

Selected range

Filename H:\dafnaplus\Singles 1965-1967\08 Let’s Spend The Night Together\The Rolling Stones – Singles 1965–1967- Let’s Spend The Night Together (Disc 8).wav

Peak level 99.8 %
Extraction speed 5.1 X
Range quality 100.0 %
Test CRC C60633CD
Copy CRC C60633CD
Copy OK

No errors occurred

AccurateRip summary

Track 1 accurately ripped (confidence 5) [74BE902F] (AR v2)
Track 2 accurately ripped (confidence 5) [35A2B1A0] (AR v2)

All tracks accurately ripped

End of status report

—- CUETools DB Plugin V2.1.6

[CTDB TOCID: khvSGW29lK3Eb2r5D2iBwtJqEEg-] found
Submit result: khvSGW29lK3Eb2r5D2iBwtJqEEg- has been confirmed
Track | CTDB Status
1 | ( 9/19) Accurately ripped
2 | ( 9/19) Accurately ripped

==== Log checksum DE29C28D1D0CD97DBB568079C16F24D04079FDB96C48A236C4CC68F86574891B ====

Exact Audio Copy V1.3 from 2. September 2016

EAC extraction logfile from 11. February 2017, 17:46

The Rolling Stones / Singles 1965–1967: Mother’s Little Helper (Disc 6)

Used drive : PLEXTOR DVDR PX-891SA Adapter: 1 ID: 0

Read mode : Secure
Utilize accurate stream : Yes
Defeat audio cache : Yes
Make use of C2 pointers : No

Read offset correction : 6
Overread into Lead-In and Lead-Out : No
Fill up missing offset samples with silence : Yes
Delete leading and trailing silent blocks : No
Null samples used in CRC calculations : Yes
Used interface : Native Win32 interface for Win NT & 2000

Used output format : User Defined Encoder
Selected bitrate : 128 kBit/s
Quality : High
Add ID3 tag : No
Command line compressor : C:\Program Files (x86)\Exact Audio Copy\Flac\flac.exe
Additional command line options : -V -8 -T “Genre=%genre%” -T “Artist=%artist%” -T “Title=%title%” -T “Album=%albumtitle%” -T “Date=%year%” -T “Tracknumber=%tracknr%” -T “Comment=%comment%” %source%

TOC of the extracted CD

Track | Start | Length | Start sector | End sector
———————————————————
1 | 0:00.00 | 2:47.50 | 0 | 12574
2 | 2:47.50 | 3:09.47 | 12575 | 26796

Range status and errors

Selected range

Filename H:\dafnaplus\Singles 1965-1967\06 Mother’s Little Helper\The Rolling Stones – Singles 1965–1967- Mother’s Little Helper (Disc 6).wav

Peak level 99.8 %
Extraction speed 5.1 X
Range quality 100.0 %
Test CRC 1AADB135
Copy CRC 1AADB135
Copy OK

No errors occurred

AccurateRip summary

Track 1 accurately ripped (confidence 5) [C6B36DB8] (AR v2)
Track 2 accurately ripped (confidence 5) [26F4F721] (AR v2)

All tracks accurately ripped

End of status report

—- CUETools DB Plugin V2.1.6

[CTDB TOCID: fGCo7u11COvTXR30MAaeYvZ61IU-] found
Submit result: fGCo7u11COvTXR30MAaeYvZ61IU- has been confirmed
Track | CTDB Status
1 | (10/20) Accurately ripped
2 | (10/20) Accurately ripped

==== Log checksum AC7233C29B7CDD4C8D377BE0DC330A660EB96FC8BEE897FC199F4DBBE7C0472B ====

Exact Audio Copy V1.3 from 2. September 2016

EAC extraction logfile from 11. February 2017, 13:43

The Rolling Stones / Singles 1965–1967: 19th Nervous Breakdown (Disc 4)

Used drive : PLEXTOR DVDR PX-891SA Adapter: 1 ID: 0

Read mode : Secure
Utilize accurate stream : Yes
Defeat audio cache : Yes
Make use of C2 pointers : No

Read offset correction : 6
Overread into Lead-In and Lead-Out : No
Fill up missing offset samples with silence : Yes
Delete leading and trailing silent blocks : No
Null samples used in CRC calculations : Yes
Used interface : Native Win32 interface for Win NT & 2000

Used output format : User Defined Encoder
Selected bitrate : 128 kBit/s
Quality : High
Add ID3 tag : No
Command line compressor : C:\Program Files (x86)\Exact Audio Copy\Flac\flac.exe
Additional command line options : -V -8 -T “Genre=%genre%” -T “Artist=%artist%” -T “Title=%title%” -T “Album=%albumtitle%” -T “Date=%year%” -T “Tracknumber=%tracknr%” -T “Comment=%comment%” %source%

TOC of the extracted CD

Track | Start | Length | Start sector | End sector
———————————————————
1 | 0:00.00 | 3:58.10 | 0 | 17859
2 | 3:58.10 | 3:01.68 | 17860 | 31502

Range status and errors

Selected range

Filename H:\dafnaplus\Singles 1965-1967\04 19th Nervous Breakdown\The Rolling Stones – Singles 1965–1967- 19th Nervous Breakdown (Disc 4).wav

Peak level 99.8 %
Extraction speed 2.0 X
Range quality 100.0 %
Test CRC CBC72AC6
Copy CRC CBC72AC6
Copy OK

No errors occurred

AccurateRip summary

Track 1 accurately ripped (confidence 5) [261C92AD] (AR v2)
Track 2 accurately ripped (confidence 4) [C4DDC463] (AR v2)

All tracks accurately ripped

End of status report

—- CUETools DB Plugin V2.1.6

[CTDB TOCID: wqMuV7QaVqti6kUYsJziWVFfRS8-] found
Submit result: wqMuV7QaVqti6kUYsJziWVFfRS8- has been confirmed
Track | CTDB Status
1 | (10/10) Accurately ripped
2 | (10/10) Accurately ripped

==== Log checksum 16607CCD0B6B4944428B4A1ADF788762B9DE946CB172F6A23ACA4F11B6F685D4 ====

Exact Audio Copy V1.3 from 2. September 2016

EAC extraction logfile from 8. October 2017, 13:29

The Rolling Stones / Have You Seen Your Mother, Baby, Standing In The Shadow?

Used drive : PLEXTOR DVDR PX-891SA Adapter: 1 ID: 0

Read mode : Secure
Utilize accurate stream : Yes
Defeat audio cache : Yes
Make use of C2 pointers : No

Read offset correction : 6
Overread into Lead-In and Lead-Out : No
Fill up missing offset samples with silence : Yes
Delete leading and trailing silent blocks : No
Null samples used in CRC calculations : Yes
Used interface : Native Win32 interface for Win NT & 2000

Used output format : User Defined Encoder
Selected bitrate : 128 kBit/s
Quality : High
Add ID3 tag : No
Command line compressor : C:\Program Files (x86)\Exact Audio Copy\Flac\flac.exe
Additional command line options : -V -8 -T “Genre=%genre%” -T “Artist=%artist%” -T “Title=%title%” -T “Album=%albumtitle%” -T “Date=%year%” -T “Tracknumber=%tracknr%” -T “Comment=%comment%” %source%

TOC of the extracted CD

Track | Start | Length | Start sector | End sector
———————————————————
1 | 0:00.00 | 2:35.50 | 0 | 11674
2 | 2:35.50 | 3:13.70 | 11675 | 26219

Range status and errors

Selected range

Filename H:\dafnaplus\07 Have You Seen Your Mother, Baby, Standing In The Shadow\The Rolling Stones – Have You Seen Your Mother, Baby, Standing In The Shadow.wav

Peak level 99.8 %
Extraction speed 4.6 X
Range quality 99.9 %
Test CRC BF213C0C
Copy CRC BF213C0C
Copy OK

No errors occurred

AccurateRip summary

Track 1 accurately ripped (confidence 6) [82913B2F] (AR v2)
Track 2 accurately ripped (confidence 5) [8AACCC79] (AR v2)

All tracks accurately ripped

End of status report

—- CUETools DB Plugin V2.1.6

[CTDB TOCID: BKuPT7VQroafQVIOFUVCtFq6g_E-] found
Submit result: already submitted
Track | CTDB Status
1 | (15/25) Accurately ripped
2 | (15/25) Accurately ripped

==== Log checksum 40D099A86243444D24EF9C5735DAC09D3A9E96D49164CD055CD8DDF9689F8529 ====

Exact Audio Copy V1.3 from 2. September 2016

EAC extraction logfile from 11. February 2017, 22:54

The Rolling Stones / Singles 1965–1967: In Another Land (Disc 11)

Used drive : PLEXTOR DVDR PX-891SA Adapter: 1 ID: 0

Read mode : Secure
Utilize accurate stream : Yes
Defeat audio cache : Yes
Make use of C2 pointers : No

Read offset correction : 6
Overread into Lead-In and Lead-Out : No
Fill up missing offset samples with silence : Yes
Delete leading and trailing silent blocks : No
Null samples used in CRC calculations : Yes
Used interface : Native Win32 interface for Win NT & 2000

Used output format : User Defined Encoder
Selected bitrate : 128 kBit/s
Quality : High
Add ID3 tag : No
Command line compressor : C:\Program Files (x86)\Exact Audio Copy\Flac\flac.exe
Additional command line options : -V -8 -T “Genre=%genre%” -T “Artist=%artist%” -T “Title=%title%” -T “Album=%albumtitle%” -T “Date=%year%” -T “Tracknumber=%tracknr%” -T “Comment=%comment%” %source%

TOC of the extracted CD

Track | Start | Length | Start sector | End sector
———————————————————
1 | 0:00.00 | 2:53.50 | 0 | 13024
2 | 2:53.50 | 4:25.50 | 13025 | 32949

Range status and errors

Selected range

Filename H:\dafnaplus\Singles 1965-1967\11 In Another Land\The Rolling Stones – Singles 1965–1967- In Another Land (Disc 11).wav

Peak level 99.8 %
Extraction speed 5.8 X
Range quality 100.0 %
Test CRC 2B93B501
Copy CRC 2B93B501
Copy OK

No errors occurred

AccurateRip summary

Track 1 accurately ripped (confidence 4) [9CEB5481] (AR v2)
Track 2 accurately ripped (confidence 4) [79D8013F] (AR v2)

All tracks accurately ripped

End of status report

—- CUETools DB Plugin V2.1.6

[CTDB TOCID: yq2CZUBR1pMRjpvlqffY3WUNt9g-] found
Submit result: yq2CZUBR1pMRjpvlqffY3WUNt9g- has been confirmed
Track | CTDB Status
1 | (10/20) Accurately ripped
2 | (10/20) Accurately ripped

==== Log checksum B34AE0B46DAF7431A78D27256A41DB63D9C91A0247D97CA8ACA4DC36356A9D9F ====

REM GENRE “Rock ”
REM DATE 2004
REM DISCID 0F01B702
REM COMMENT “ExactAudioCopy v1.3”
PERFORMER “The Rolling Stones”
TITLE “Singles 1965–1967: In Another Land (Disc 11)”
REM COMPOSER “”
FILE “The Rolling Stones – Singles 1965–1967- In Another Land (Disc 11).flac” WAVE
TRACK 01 AUDIO
TITLE “In Another Land”
PERFORMER “The Rolling Stones”
REM COMPOSER “”
INDEX 01 00:00:00
TRACK 02 AUDIO
TITLE “The Lantern”
PERFORMER “The Rolling Stones”
REM COMPOSER “”
INDEX 00 02:52:45
INDEX 01 02:53:50

REM GENRE Rock
REM DATE 2004
REM DISCID 10012402
REM COMMENT “ExactAudioCopy v1.3”
PERFORMER “The Rolling Stones”
TITLE “Singles 1965–1967: As Tears Go By (Disc 3)”
REM COMPOSER “”
FILE “The Rolling Stones – Singles 1965–1967- As Tears Go By (Disc 3).flac” WAVE
TRACK 01 AUDIO
TITLE “As Tears Go By”
PERFORMER “The Rolling Stones”
REM COMPOSER “”
INDEX 01 00:00:00
TRACK 02 AUDIO
TITLE “Gotta Get Away ”
PERFORMER “The Rolling Stones”
REM COMPOSER “”
INDEX 00 02:45:30
INDEX 01 02:45:62

REM GENRE “Rock ”
REM DATE 2004
REM DISCID 0C01FA02
REM COMMENT “ExactAudioCopy v1.3”
PERFORMER “The Rolling Stones”
TITLE “Singles 1965–1967: We Love Your (Disc 9)”
REM COMPOSER “”
FILE “The Rolling Stones – Singles 1965–1967- We Love Your (Disc 9).flac” WAVE
TRACK 01 AUDIO
TITLE “We Love You”
PERFORMER “The Rolling Stones”
REM COMPOSER “”
INDEX 01 00:00:00
TRACK 02 AUDIO
TITLE “Dandelion”
PERFORMER “The Rolling Stones”
REM COMPOSER “”
INDEX 00 04:35:65
INDEX 01 04:38:17

REM GENRE Rock
REM DATE 2004
REM DISCID 13027503
REM COMMENT “ExactAudioCopy v1.3”
PERFORMER “The Rolling Stones”
TITLE “Singles 1965–1967: (I Can’t Get No) Satisfaction (Disc 1)”
REM COMPOSER “”
FILE “The Rolling Stones – Singles 1965–1967- (I Can’t Get No) Satisfaction (Disc 1).flac” WAVE
TRACK 01 AUDIO
TITLE “(I Can’t Get No) Satisfaction”
PERFORMER “The Rolling Stones”
REM COMPOSER “”
INDEX 01 00:00:00
TRACK 02 AUDIO
TITLE “Under Assistant West Coast Promotion Man”
PERFORMER “The Rolling Stones”
REM COMPOSER “”
INDEX 00 03:42:57
INDEX 01 03:43:07
TRACK 03 AUDIO
TITLE “Spider And The Fly”
PERFORMER “The Rolling Stones”
REM COMPOSER “”
INDEX 00 06:49:62
INDEX 01 06:51:37

REM GENRE Rock
REM DATE 2004
REM DISCID 1501CD03
REM COMMENT “ExactAudioCopy v1.3”
PERFORMER “The Rolling Stones”
TITLE “Singles 1965–1967: Get Off Of My Cloud (Disc 2)”
REM COMPOSER “”
FILE “The Rolling Stones – Singles 1965–1967- Get Off Of My Cloud (Disc 2).flac” WAVE
TRACK 01 AUDIO
TITLE “Get Off Of My Cloud”
PERFORMER “The Rolling Stones”
REM COMPOSER “”
INDEX 01 00:00:00
TRACK 02 AUDIO
TITLE “I’m Free”
PERFORMER “The Rolling Stones”
REM COMPOSER “”
INDEX 00 02:54:12
INDEX 01 02:54:50
TRACK 03 AUDIO
TITLE “The Singer Not The Song”
PERFORMER “The Rolling Stones”
REM COMPOSER “”
INDEX 00 05:18:15
INDEX 01 05:18:63

REM GENRE Rock
REM DATE 2004
REM DISCID 16024803
REM COMMENT “ExactAudioCopy v1.3”
PERFORMER “The Rolling Stones”
TITLE “Singles 1965–1967: Paint It, Black (Disc 5)”
REM COMPOSER “”
FILE “The Rolling Stones – Singles 1965–1967- Paint It, Black (Disc 5).flac” WAVE
TRACK 01 AUDIO
TITLE “Paint It, Black”
PERFORMER “The Rolling Stones”
REM COMPOSER “”
INDEX 01 00:00:00
TRACK 02 AUDIO
TITLE “Stupid Girl”
PERFORMER “The Rolling Stones”
REM COMPOSER “”
INDEX 00 03:44:17
INDEX 01 03:45:50
TRACK 03 AUDIO
TITLE “Long Long While”
PERFORMER “The Rolling Stones”
REM COMPOSER “”
INDEX 00 06:40:52
INDEX 01 06:43:05

REM GENRE Rock
REM DATE 2004
REM DISCID 0F015D02
REM COMMENT “ExactAudioCopy v1.3”
PERFORMER “The Rolling Stones”
TITLE “Have You Seen Your Mother, Baby, Standing In The Shadow? ”
REM COMPOSER “”
FILE “The Rolling Stones – Have You Seen Your Mother, Baby, Standing In The Shadow.flac” WAVE
TRACK 01 AUDIO
TITLE “Have You Seen Your Mother, Baby, Standing In The Shadow?”
PERFORMER “The Rolling Stones”
REM COMPOSER “”
INDEX 01 00:00:00
TRACK 02 AUDIO
TITLE “Who’s Driving Your Plane? ”
PERFORMER “The Rolling Stones”
REM COMPOSER “”
INDEX 00 02:34:17
INDEX 01 02:35:50

REM GENRE Rock
REM DATE 2004
REM DISCID 0D019002
REM COMMENT “ExactAudioCopy v1.3”
PERFORMER “The Rolling Stones”
TITLE “Singles 1965–1967: Let’s Spend The Night Together (Disc 8)”
REM COMPOSER “”
FILE “The Rolling Stones – Singles 1965–1967- Let’s Spend The Night Together (Disc 8).flac” WAVE
TRACK 01 AUDIO
TITLE “Let’s Spend The Night Together”
PERFORMER “The Rolling Stones”
REM COMPOSER “”
INDEX 01 00:00:00
TRACK 02 AUDIO
TITLE “Ruby Tuesday”
PERFORMER “The Rolling Stones”
REM COMPOSER “”
INDEX 00 03:26:10
INDEX 01 03:27:35

REM GENRE “Rock ”
REM DATE 2004
REM DISCID 0D021902
REM COMMENT “ExactAudioCopy v1.3”
PERFORMER “The Rolling Stones”
TITLE “Singles 1965–1967: She’s A Rainbow (Disc 10)”
REM COMPOSER “”
FILE “The Rolling Stones – Singles 1965–1967- She’s A Rainbow (Disc 10).flac” WAVE
TRACK 01 AUDIO
TITLE “She’s A Rainbow”
PERFORMER “The Rolling Stones”
REM COMPOSER “”
INDEX 01 00:00:00
TRACK 02 AUDIO
TITLE “2000 Light Years From Home”
PERFORMER “The Rolling Stones”
REM COMPOSER “”
INDEX 00 04:11:55
INDEX 01 04:12:50

REM GENRE Rock
REM DATE 2004
REM DISCID 12016502
REM COMMENT “ExactAudioCopy v1.3”
PERFORMER “The Rolling Stones”
TITLE “Singles 1965–1967: Mother’s Little Helper (Disc 6)”
REM COMPOSER “”
FILE “The Rolling Stones – Singles 1965–1967- Mother’s Little Helper (Disc 6).flac” WAVE
TRACK 01 AUDIO
TITLE “Mother’s Little Helper”
PERFORMER “The Rolling Stones”
REM COMPOSER “”
INDEX 01 00:00:00
TRACK 02 AUDIO
TITLE “Lady Jane”
PERFORMER “The Rolling Stones”
REM COMPOSER “”
INDEX 00 02:45:35
INDEX 01 02:47:50

REM GENRE Rock
REM DATE 2004
REM DISCID 0801A402
REM COMMENT “ExactAudioCopy v1.3”
PERFORMER “The Rolling Stones”
TITLE “Singles 1965–1967: 19th Nervous Breakdown (Disc 4)”
REM COMPOSER “”
FILE “The Rolling Stones – Singles 1965–1967- 19th Nervous Breakdown (Disc 4).flac” WAVE
TRACK 01 AUDIO
TITLE “19th Nervous Breakdown”
PERFORMER “The Rolling Stones”
REM COMPOSER “”
INDEX 01 00:00:00
TRACK 02 AUDIO
TITLE “Sad Day”
PERFORMER “The Rolling Stones”
REM COMPOSER “”
INDEX 00 03:56:50
INDEX 01 03:58:10


Leave a Reply

Your email address will not be published. Required fields are marked *

This site uses Akismet to reduce spam. Learn how your comment data is processed.