The Rolling Stones – Singles 1963-1965




Artist: The Rolling Stones
Year: 2004
Genre: Rock
Notes: Discogs
Add. Notes:
Cover incl.: Yes
Encoder: FLAC
Bitrate: ~700 kBit/s (44.1 kHz/16 Bit/s)
Log & Cue incl.: Yes
Size: 740,37 MB
Password: “slam” (without ” “)


All Downloads/Hosters are compatible

Download 1
Turbobit.net
KatFile.com
Rapidgator.net
Download 2
Turbobit.net
KatFile.com
Rapidgator.net

Tracklist:

Come On
1-1 - Come On - 1:50
1-2 - I Want To Be Loved - 1:52
I Wanna Be Your Man
2-1 - I Wanna Be Your Man - 1:44
2-2 - Stoned - 2:09
The Rolling Stones E.P.
3-1 - Bye Bye Johnny - 2:11
3-2 - Money - 2:33
3-3 - You Better Move On - 2:41
3-4 - Poison Ivy - 2:06
Not Fade Away
4-1 - Not Fade Away - 1:48
4-2 - Little By Little - 2:39
It's All Over Now
5-1 - It's All Over Now - 3:30
5-2 - Good Times, Bad Times - 2:30
Five By Five
6-1 - If You Need Me - 2:05
6-2 - Empty Heart - 2:39
6-3 - 2120 South Michigan Avenue - 2:10
6-4 - Confessin' The Blues - 2:51
6-5 - Around And Around - 3:05
Tell Me
7-1 - Tell Me - 2:40
7-2 - I Just Want To Make Love To You - 2:17
Time Is On My Side
8-1 - Time Is On My Side - 2:54
8-2 - Congratulations - 2:28
Little Red Rooster
9-1 - Little Red Rooster - 3:06
9-2 - Off The Hook - 2:34
Heart Of Stone
10-1 - Heart Of Stone - 2:46
10-2 - What A Shame - 3:03
The Last Time
11-1 - The Last Time - 3:42
11-2 - Play With Fire - 2:14
Got Live If You Want It!
12-1 - We Want The Stones - 0:13
12-2 - Everybody Needs Somebody To Love - 0:36
12-3 - Pain In My Heart - 2:03
12-4 - Route 66 - 2:37
12-5 - I'm Moving On - 2:12
12-6 - I'm Alright - 2:22

EAC-Log, CUE-Sheed & NFO:

Click to open spoiler
Exact Audio Copy V1.3 from 2. September 2016

EAC extraction logfile from 31. January 2017, 22:39

The Rolling Stones / Singles 1963–1965: Come On (Disc 1)

Used drive : PLEXTOR DVDR PX-891SA Adapter: 1 ID: 0

Read mode : Secure
Utilize accurate stream : Yes
Defeat audio cache : Yes
Make use of C2 pointers : No

Read offset correction : 6
Overread into Lead-In and Lead-Out : No
Fill up missing offset samples with silence : Yes
Delete leading and trailing silent blocks : No
Null samples used in CRC calculations : Yes
Used interface : Native Win32 interface for Win NT & 2000

Used output format : User Defined Encoder
Selected bitrate : 128 kBit/s
Quality : High
Add ID3 tag : No
Command line compressor : C:\Program Files (x86)\Exact Audio Copy\Flac\flac.exe
Additional command line options : -V -8 -T “Genre=%genre%” -T “Artist=%artist%” -T “Title=%title%” -T “Album=%albumtitle%” -T “Date=%year%” -T “Tracknumber=%tracknr%” -T “Comment=%comment%” %source%

TOC of the extracted CD

Track | Start | Length | Start sector | End sector
———————————————————
1 | 0:00.00 | 1:49.45 | 0 | 8219
2 | 1:49.45 | 1:51.60 | 8220 | 16604

Range status and errors

Selected range

Filename H:\dafnaplus\Singles 1963-1965\01 Come On\The Rolling Stones – Singles 1963–1965- Come On (Disc 1).wav

Peak level 99.8 %
Extraction speed 4.6 X
Range quality 100.0 %
Test CRC 42103C73
Copy CRC 42103C73
Copy OK

No errors occurred

AccurateRip summary

Track 1 accurately ripped (confidence 7) [890561C9] (AR v2)
Track 2 accurately ripped (confidence 7) [85449B0C] (AR v2)

All tracks accurately ripped

End of status report

—- CUETools DB Plugin V2.1.6

[CTDB TOCID: MiiCHFHAzXpvzOtksNHwiwbWp5k-] found
Submit result: MiiCHFHAzXpvzOtksNHwiwbWp5k- has been confirmed
Track | CTDB Status
1 | (11/21) Accurately ripped
2 | (11/21) Accurately ripped

==== Log checksum 02CE751018B60CBB6B9DF0F13F2F5B9F695AC1683D0566DBC62B20D1355F63D2 ====

Exact Audio Copy V1.3 from 2. September 2016

EAC extraction logfile from 1. February 2017, 19:38

The Rolling Stones / Singles 1963-1965: I Wanna Be Your Man (Disc 2)

Used drive : PLEXTOR DVDR PX-891SA Adapter: 1 ID: 0

Read mode : Secure
Utilize accurate stream : Yes
Defeat audio cache : Yes
Make use of C2 pointers : No

Read offset correction : 6
Overread into Lead-In and Lead-Out : No
Fill up missing offset samples with silence : Yes
Delete leading and trailing silent blocks : No
Null samples used in CRC calculations : Yes
Used interface : Native Win32 interface for Win NT & 2000

Used output format : User Defined Encoder
Selected bitrate : 128 kBit/s
Quality : High
Add ID3 tag : No
Command line compressor : C:\Program Files (x86)\Exact Audio Copy\Flac\flac.exe
Additional command line options : -V -8 -T “Genre=%genre%” -T “Artist=%artist%” -T “Title=%title%” -T “Album=%albumtitle%” -T “Date=%year%” -T “Tracknumber=%tracknr%” -T “Comment=%comment%” %source%

TOC of the extracted CD

Track | Start | Length | Start sector | End sector
———————————————————
1 | 0:00.00 | 1:44.29 | 0 | 7828
2 | 1:44.29 | 2:09.03 | 7829 | 17506

Range status and errors

Selected range

Filename H:\dafnaplus\Singles 1963-1965\02 I Wanna Be Your Man\The Rolling Stones – Singles 1963-1965- I Wanna Be Your Man (Disc 2).wav

Peak level 100.0 %
Extraction speed 1.8 X
Range quality 100.0 %
Test CRC 5B633727
Copy CRC 5B633727
Copy OK

No errors occurred

AccurateRip summary

Track 1 accurately ripped (confidence 7) [0000B90A] (AR v2)
Track 2 accurately ripped (confidence 6) [100827C9] (AR v2)

All tracks accurately ripped

End of status report

—- CUETools DB Plugin V2.1.6

[CTDB TOCID: m2v7qUeR_r145Tbnc9iUFZtOq1c-] found
Submit result: m2v7qUeR_r145Tbnc9iUFZtOq1c- has been confirmed
Track | CTDB Status
1 | (9/9) Accurately ripped
2 | (9/9) Accurately ripped

==== Log checksum 2B8FAC9C10CB36D3EDE23D554E4C9ACA53B0F3CAE5567CCC550937E4A4294B4E ====

Exact Audio Copy V1.3 from 2. September 2016

EAC extraction logfile from 1. February 2017, 22:17

The Rolling Stones / Singles 1963-1965- The Rolling Stones (Disc 3)

Used drive : PLEXTOR DVDR PX-891SA Adapter: 1 ID: 0

Read mode : Secure
Utilize accurate stream : Yes
Defeat audio cache : Yes
Make use of C2 pointers : No

Read offset correction : 6
Overread into Lead-In and Lead-Out : No
Fill up missing offset samples with silence : Yes
Delete leading and trailing silent blocks : No
Null samples used in CRC calculations : Yes
Used interface : Native Win32 interface for Win NT & 2000

Used output format : User Defined Encoder
Selected bitrate : 128 kBit/s
Quality : High
Add ID3 tag : No
Command line compressor : C:\Program Files (x86)\Exact Audio Copy\Flac\flac.exe
Additional command line options : -V -8 -T “Genre=%genre%” -T “Artist=%artist%” -T “Title=%title%” -T “Album=%albumtitle%” -T “Date=%year%” -T “Tracknumber=%tracknr%” -T “Comment=%comment%” %source%

TOC of the extracted CD

Track | Start | Length | Start sector | End sector
———————————————————
1 | 0:00.00 | 2:10.70 | 0 | 9819
2 | 2:10.70 | 2:33.05 | 9820 | 21299
3 | 4:44.00 | 2:41.20 | 21300 | 33394
4 | 7:25.20 | 2:06.12 | 33395 | 42856

Range status and errors

Selected range

Filename H:\dafnaplus\Singles 1963-1965\03 The Rolling Stones\The Rolling Stones – Singles 1963-1965- The Rolling Stones (Disc 3).wav

Peak level 99.8 %
Extraction speed 5.4 X
Range quality 100.0 %
Test CRC A5522969
Copy CRC A5522969
Copy OK

No errors occurred

AccurateRip summary

Track 1 accurately ripped (confidence 8) [B7591B19] (AR v2)
Track 2 accurately ripped (confidence 8) [54D21F31] (AR v2)
Track 3 accurately ripped (confidence 8) [7ADFB8A1] (AR v2)
Track 4 accurately ripped (confidence 8) [6D5C191E] (AR v2)

All tracks accurately ripped

End of status report

—- CUETools DB Plugin V2.1.6

[CTDB TOCID: cN42rdyfbOXnBjQbgtSwQTfqz.E-] found
Submit result: cN42rdyfbOXnBjQbgtSwQTfqz.E- has been confirmed
Track | CTDB Status
1 | (10/20) Accurately ripped
2 | (10/20) Accurately ripped
3 | (10/20) Accurately ripped
4 | (10/20) Accurately ripped

==== Log checksum 0D8670E9B04132C5001561BCDA2CF2FFF8A36C8F7B0443BD2C1377FBBD735B54 ====

Exact Audio Copy V1.3 from 2. September 2016

EAC extraction logfile from 2. February 2017, 20:09

The Rolling Stones / Singles 1963–1965: Five By Five (Disc 6)

Used drive : PLEXTOR DVDR PX-891SA Adapter: 1 ID: 0

Read mode : Secure
Utilize accurate stream : Yes
Defeat audio cache : Yes
Make use of C2 pointers : No

Read offset correction : 6
Overread into Lead-In and Lead-Out : No
Fill up missing offset samples with silence : Yes
Delete leading and trailing silent blocks : No
Null samples used in CRC calculations : Yes
Used interface : Native Win32 interface for Win NT & 2000

Used output format : User Defined Encoder
Selected bitrate : 128 kBit/s
Quality : High
Add ID3 tag : No
Command line compressor : C:\Program Files (x86)\Exact Audio Copy\Flac\flac.exe
Additional command line options : -V -8 -T “Genre=%genre%” -T “Artist=%artist%” -T “Title=%title%” -T “Album=%albumtitle%” -T “Date=%year%” -T “Tracknumber=%tracknr%” -T “Comment=%comment%” %source%

TOC of the extracted CD

Track | Start | Length | Start sector | End sector
———————————————————
1 | 0:00.00 | 2:05.05 | 0 | 9379
2 | 2:05.05 | 2:38.53 | 9380 | 21282
3 | 4:43.58 | 2:10.20 | 21283 | 31052
4 | 6:54.03 | 2:50.40 | 31053 | 43842
5 | 9:44.43 | 3:04.60 | 43843 | 57702

Range status and errors

Selected range

Filename H:\dafnaplus\Singles 1963-1965\06 Five By Five\The Rolling Stones – Singles 1963–1965- Five By Five (Disc 6).wav

Peak level 100.0 %
Extraction speed 5.7 X
Range quality 100.0 %
Test CRC 9665DD7E
Copy CRC 9665DD7E
Copy OK

No errors occurred

AccurateRip summary

Track 1 accurately ripped (confidence 7) [97E0F02C] (AR v2)
Track 2 accurately ripped (confidence 7) [D194773E] (AR v2)
Track 3 accurately ripped (confidence 7) [6A595150] (AR v2)
Track 4 accurately ripped (confidence 7) [4B6D2292] (AR v2)
Track 5 accurately ripped (confidence 7) [E1792F90] (AR v2)

All tracks accurately ripped

End of status report

—- CUETools DB Plugin V2.1.6

[CTDB TOCID: U_cqV1b3xlks.UwvvKqjfI5FFpY-] found
Submit result: U_cqV1b3xlks.UwvvKqjfI5FFpY- has been confirmed
Track | CTDB Status
1 | (8/8) Accurately ripped
2 | (8/8) Accurately ripped
3 | (8/8) Accurately ripped
4 | (8/8) Accurately ripped
5 | (8/8) Accurately ripped

==== Log checksum 6F481468F4BAED47ACF7E75BCBCDC8B0EAF149024C1637A1CEE3C135727E3090 ====

Exact Audio Copy V1.3 from 2. September 2016

EAC extraction logfile from 3. February 2017, 18:24

The Rolling Stones / Singles 1963–1965: Little Red Rooster (Disc 9)

Used drive : PLEXTOR DVDR PX-891SA Adapter: 1 ID: 0

Read mode : Secure
Utilize accurate stream : Yes
Defeat audio cache : Yes
Make use of C2 pointers : No

Read offset correction : 6
Overread into Lead-In and Lead-Out : No
Fill up missing offset samples with silence : Yes
Delete leading and trailing silent blocks : No
Null samples used in CRC calculations : Yes
Used interface : Native Win32 interface for Win NT & 2000

Used output format : User Defined Encoder
Selected bitrate : 128 kBit/s
Quality : High
Add ID3 tag : No
Command line compressor : C:\Program Files (x86)\Exact Audio Copy\Flac\flac.exe
Additional command line options : -V -8 -T “Genre=%genre%” -T “Artist=%artist%” -T “Title=%title%” -T “Album=%albumtitle%” -T “Date=%year%” -T “Tracknumber=%tracknr%” -T “Comment=%comment%” %source%

TOC of the extracted CD

Track | Start | Length | Start sector | End sector
———————————————————
1 | 0:00.00 | 3:06.25 | 0 | 13974
2 | 3:06.25 | 2:34.25 | 13975 | 25549

Range status and errors

Selected range

Filename H:\dafnaplus\Singles 1963-1965\09 Little Red Rooster\The Rolling Stones – Singles 1963–1965- Little Red Rooster (Disc 9).wav

Peak level 99.3 %
Extraction speed 5.0 X
Range quality 100.0 %
Test CRC 5E8BE432
Copy CRC 5E8BE432
Copy OK

No errors occurred

AccurateRip summary

Track 1 accurately ripped (confidence 7) [1EF1106A] (AR v2)
Track 2 accurately ripped (confidence 6) [832EB720] (AR v2)

All tracks accurately ripped

End of status report

—- CUETools DB Plugin V2.1.6

[CTDB TOCID: Mf5pTmXxFn7rEdZOkfC5UWtXOWM-] found
Submit result: Mf5pTmXxFn7rEdZOkfC5UWtXOWM- has been confirmed
Track | CTDB Status
1 | (10/20) Accurately ripped
2 | (10/20) Accurately ripped

==== Log checksum 30CB95105687ECCB4DD4705FC18F7BE01B62ECCE8B2E5856E9C5A1C3AA29C1A4 ====

Exact Audio Copy V1.3 from 2. September 2016

EAC extraction logfile from 3. February 2017, 22:01

The Rolling Stones / Singles 1963–1965: Got Live If You Want It! (Disc 12)

Used drive : PLEXTOR DVDR PX-891SA Adapter: 1 ID: 0

Read mode : Secure
Utilize accurate stream : Yes
Defeat audio cache : Yes
Make use of C2 pointers : No

Read offset correction : 6
Overread into Lead-In and Lead-Out : No
Fill up missing offset samples with silence : Yes
Delete leading and trailing silent blocks : No
Null samples used in CRC calculations : Yes
Used interface : Native Win32 interface for Win NT & 2000

Used output format : User Defined Encoder
Selected bitrate : 128 kBit/s
Quality : High
Add ID3 tag : No
Command line compressor : C:\Program Files (x86)\Exact Audio Copy\Flac\flac.exe
Additional command line options : -V -8 -T “Genre=%genre%” -T “Artist=%artist%” -T “Title=%title%” -T “Album=%albumtitle%” -T “Date=%year%” -T “Tracknumber=%tracknr%” -T “Comment=%comment%” %source%

TOC of the extracted CD

Track | Start | Length | Start sector | End sector
———————————————————
1 | 0:00.00 | 0:12.65 | 0 | 964
2 | 0:12.65 | 0:35.55 | 965 | 3644
3 | 0:48.45 | 2:03.03 | 3645 | 12872
4 | 2:51.48 | 2:36.57 | 12873 | 24629
5 | 5:28.30 | 2:12.23 | 24630 | 34552
6 | 7:40.53 | 2:22.32 | 34553 | 45234

Range status and errors

Selected range

Filename H:\dafnaplus\Singles 1963-1965\12 Got Live If You Want It!\The Rolling Stones – Singles 1963–1965- Got Live If You Want It! (Disc 12).wav

Peak level 84.9 %
Extraction speed 5.5 X
Range quality 100.0 %
Test CRC B37CD508
Copy CRC B37CD508
Copy OK

No errors occurred

AccurateRip summary

Track 1 accurately ripped (confidence 7) [EB1999B2] (AR v2)
Track 2 accurately ripped (confidence 7) [F5B46798] (AR v2)
Track 3 accurately ripped (confidence 7) [9C1823CF] (AR v2)
Track 4 accurately ripped (confidence 7) [F9F3E805] (AR v2)
Track 5 accurately ripped (confidence 7) [7649E12D] (AR v2)
Track 6 accurately ripped (confidence 7) [674509CC] (AR v2)

All tracks accurately ripped

End of status report

—- CUETools DB Plugin V2.1.6

[CTDB TOCID: itQg2Y49sdQcJn6qgvqK990.D58-] found
Submit result: itQg2Y49sdQcJn6qgvqK990.D58- has been confirmed
Track | CTDB Status
1 | (10/10) Accurately ripped
2 | (10/10) Accurately ripped
3 | (10/10) Accurately ripped
4 | (10/10) Accurately ripped
5 | (10/10) Accurately ripped
6 | (10/10) Accurately ripped

==== Log checksum FBEFF2F95D389A88C57E1A16D41F5648C49ED620DA4BBA693BA1E42D59809455 ====

REM GENRE Rock
REM DATE 2004
REM DISCID 07016802
REM COMMENT “ExactAudioCopy v1.3”
PERFORMER “The Rolling Stones”
TITLE ” It’s All Over Now (Disc 5)”
REM COMPOSER “”
FILE “The Rolling Stones – It’s All Over Now (Disc 5).flac” WAVE
TRACK 01 AUDIO
TITLE “It’s All Over Now”
PERFORMER “The Rolling Stones”
REM COMPOSER “”
INDEX 01 00:00:00
TRACK 02 AUDIO
TITLE “Good Times, Bad Times”
PERFORMER “The Rolling Stones”
REM COMPOSER “”
INDEX 00 03:27:35
INDEX 01 03:30:00

REM GENRE Rock
REM DATE 2004
REM DISCID 0500DD02
REM COMMENT “ExactAudioCopy v1.3”
PERFORMER “The Rolling Stones”
TITLE “Singles 1963–1965: Come On (Disc 1)”
REM COMPOSER “”
FILE “The Rolling Stones – Singles 1963–1965- Come On (Disc 1).flac” WAVE
TRACK 01 AUDIO
TITLE “Come On”
PERFORMER “The Rolling Stones”
REM COMPOSER “”
INDEX 01 00:00:00
TRACK 02 AUDIO
TITLE “I Want To Be Loved”
PERFORMER “The Rolling Stones”
REM COMPOSER “”
INDEX 00 01:48:13
INDEX 01 01:49:45

REM GENRE Rock
REM DATE 2004
REM DISCID 0900E902
REM COMMENT “ExactAudioCopy v1.3”
PERFORMER “The Rolling Stones”
TITLE “Singles 1963-1965: I Wanna Be Your Man (Disc 2)”
REM COMPOSER “”
FILE “The Rolling Stones – Singles 1963-1965- I Wanna Be Your Man (Disc 2).flac” WAVE
TRACK 01 AUDIO
TITLE “I Wanna Be Your Man”
PERFORMER “The Rolling Stones”
REM COMPOSER “”
INDEX 01 00:00:00
TRACK 02 AUDIO
TITLE “Stoned”
PERFORMER “The Rolling Stones”
REM COMPOSER “”
INDEX 01 01:44:29

REM GENRE Rock
REM DATE 2004
REM DISCID 0A012802
REM COMMENT “ExactAudioCopy v1.3”
PERFORMER “The Rolling Stones”
TITLE “Singles 1963–1965: Tell Me (Disc 7)”
REM COMPOSER “”
FILE “The Rolling Stones – Singles 1963–1965- Tell Me (Disc 7).flac” WAVE
TRACK 01 AUDIO
TITLE “Tell Me”
PERFORMER “The Rolling Stones”
REM COMPOSER “”
INDEX 01 00:00:00
TRACK 02 AUDIO
TITLE “I Just Want To Make Love To You”
PERFORMER “The Rolling Stones”
REM COMPOSER “”
INDEX 00 02:37:25
INDEX 01 02:39:50

REM GENRE Rock
REM DATE 2004
REM DISCID 04010B02
REM COMMENT “ExactAudioCopy v1.3”
PERFORMER “The Rolling Stones”
TITLE “Singles 1963-1965: Not Fade Away (Disc 4)”
REM COMPOSER “”
FILE “The Rolling Stones – Singles 1963-1965- Not Fade Away (Disc 4).flac” WAVE
TRACK 01 AUDIO
TITLE “Not Fade Away”
PERFORMER “The Rolling Stones”
REM COMPOSER “”
INDEX 01 00:00:00
TRACK 02 AUDIO
TITLE “Little By Little”
PERFORMER “The Rolling Stones”
REM COMPOSER “”
INDEX 00 01:47:22
INDEX 01 01:48:05

REM GENRE Rock
REM DATE 2004
REM DISCID 11015C02
REM COMMENT “ExactAudioCopy v1.3”
PERFORMER “The Rolling Stones”
TITLE “Singles 1963–1965: Heart Of Stone (Disc 10)”
REM COMPOSER “”
FILE “The Rolling Stones – Singles 1963–1965- Heart Of Stone (Disc 10).flac” WAVE
TRACK 01 AUDIO
TITLE “Heart Of Stone”
PERFORMER “The Rolling Stones”
REM COMPOSER “”
INDEX 01 00:00:00
TRACK 02 AUDIO
TITLE “What A Shame”
PERFORMER “The Rolling Stones”
REM COMPOSER “”
INDEX 00 02:45:33
INDEX 01 02:46:17

REM GENRE Rock
REM DATE 2004
REM DISCID 0A016402
REM COMMENT “ExactAudioCopy v1.3”
PERFORMER “The Rolling Stones”
TITLE “Singles 1963–1965: The Last Time (Disc 11)”
REM COMPOSER “”
FILE “The Rolling Stones – Singles 1963–1965- The Last Time (Disc 11).flac” WAVE
TRACK 01 AUDIO
TITLE “The Last Time ”
PERFORMER “The Rolling Stones”
REM COMPOSER “”
INDEX 01 00:00:00
TRACK 02 AUDIO
TITLE “Play With Fire”
PERFORMER “The Rolling Stones”
REM COMPOSER “”
INDEX 00 03:41:55
INDEX 01 03:42:33

REM GENRE Rock
REM DATE 2004
REM DISCID 13015402
REM COMMENT “ExactAudioCopy v1.3”
PERFORMER “The Rolling Stones”
TITLE “Singles 1963–1965: Little Red Rooster (Disc 9)”
REM COMPOSER “”
FILE “The Rolling Stones – Singles 1963–1965- Little Red Rooster (Disc 9).flac” WAVE
TRACK 01 AUDIO
TITLE “Little Red Rooster ”
PERFORMER “The Rolling Stones”
REM COMPOSER “”
INDEX 01 00:00:00
TRACK 02 AUDIO
TITLE “Off The Hook”
PERFORMER “The Rolling Stones”
REM COMPOSER “”
INDEX 00 03:04:67
INDEX 01 03:06:25

REM GENRE Rock
REM DATE 2004
REM DISCID 0F014202
REM COMMENT “ExactAudioCopy v1.3”
PERFORMER “The Rolling Stones”
TITLE “Singles 1963–1965: Time Is On My Side (Disc 8)”
REM COMPOSER “”
FILE “The Rolling Stones – Singles 1963–1965- Time Is On My Side (Disc 8).flac” WAVE
TRACK 01 AUDIO
TITLE “Time Is On My Side”
PERFORMER “The Rolling Stones”
REM COMPOSER “”
INDEX 01 00:00:00
TRACK 02 AUDIO
TITLE “Congratulations”
PERFORMER “The Rolling Stones”
REM COMPOSER “”
INDEX 00 02:51:70
INDEX 01 02:53:72

REM GENRE Rock
REM DATE 2004
REM DISCID 27023B04
REM COMMENT “ExactAudioCopy v1.3”
PERFORMER “The Rolling Stones”
TITLE “Singles 1963-1965- The Rolling Stones (Disc 3)”
REM COMPOSER “”
FILE “The Rolling Stones – Singles 1963-1965- The Rolling Stones (Disc 3).flac” WAVE
TRACK 01 AUDIO
TITLE “Bye Bye Johnny”
PERFORMER “The Rolling Stones”
REM COMPOSER “”
INDEX 01 00:00:00
TRACK 02 AUDIO
TITLE “Money”
PERFORMER “The Rolling Stones”
REM COMPOSER “”
INDEX 00 02:09:15
INDEX 01 02:10:70
TRACK 03 AUDIO
TITLE “You Better Move On”
PERFORMER “The Rolling Stones”
REM COMPOSER “”
INDEX 00 04:42:22
INDEX 01 04:44:00
TRACK 04 AUDIO
TITLE “Poison Ivy”
PERFORMER “The Rolling Stones”
REM COMPOSER “”
INDEX 00 07:23:35
INDEX 01 07:25:20

REM GENRE Rock
REM DATE 2004
REM DISCID 39030105
REM COMMENT “ExactAudioCopy v1.3”
PERFORMER “The Rolling Stones”
TITLE “Singles 1963–1965: Five By Five (Disc 6)”
REM COMPOSER “”
FILE “The Rolling Stones – Singles 1963–1965- Five By Five (Disc 6).flac” WAVE
TRACK 01 AUDIO
TITLE “If You Need Me”
PERFORMER “The Rolling Stones”
REM COMPOSER “”
INDEX 01 00:00:00
TRACK 02 AUDIO
TITLE “Empty Heart”
PERFORMER “The Rolling Stones”
REM COMPOSER “”
INDEX 00 02:03:13
INDEX 01 02:05:05
TRACK 03 AUDIO
TITLE “2120 South Michigan Avenue”
PERFORMER “The Rolling Stones”
REM COMPOSER “”
INDEX 00 04:42:10
INDEX 01 04:43:58
TRACK 04 AUDIO
TITLE “Confessin’ The Blues”
PERFORMER “The Rolling Stones”
REM COMPOSER “”
INDEX 00 06:51:00
INDEX 01 06:54:03
TRACK 05 AUDIO
TITLE “Around And Around”
PERFORMER “The Rolling Stones”
REM COMPOSER “”
INDEX 00 09:42:23
INDEX 01 09:44:43

REM GENRE Rock
REM DATE 2004
REM DISCID 29025B06
REM COMMENT “ExactAudioCopy v1.3”
PERFORMER “The Rolling Stones”
TITLE “Singles 1963–1965: Got Live If You Want It! (Disc 12)”
REM COMPOSER “”
FILE “The Rolling Stones – Singles 1963–1965- Got Live If You Want It! (Disc 12).flac” WAVE
TRACK 01 AUDIO
TITLE “We Want The Stones”
PERFORMER “The Rolling Stones”
REM COMPOSER “”
INDEX 01 00:00:00
TRACK 02 AUDIO
TITLE “Everybody Needs Somebody To Love”
PERFORMER “The Rolling Stones”
REM COMPOSER “”
INDEX 01 00:12:65
TRACK 03 AUDIO
TITLE “Pain In My Heart”
PERFORMER “The Rolling Stones”
REM COMPOSER “”
INDEX 01 00:48:45
TRACK 04 AUDIO
TITLE “Route 66”
PERFORMER “The Rolling Stones”
REM COMPOSER “”
INDEX 01 02:51:48
TRACK 05 AUDIO
TITLE “I’m Moving On”
PERFORMER “The Rolling Stones”
REM COMPOSER “”
INDEX 00 05:27:33
INDEX 01 05:28:30
TRACK 06 AUDIO
TITLE “I’m Alright”
PERFORMER “The Rolling Stones”
REM COMPOSER “”
INDEX 01 07:40:53

Exact Audio Copy V1.3 from 2. September 2016

EAC extraction logfile from 18. June 2017, 21:15

The Rolling Stones / It’s All Over Now (Disc 5)

Used drive : PLEXTOR DVDR PX-891SA Adapter: 1 ID: 0

Read mode : Secure
Utilize accurate stream : Yes
Defeat audio cache : Yes
Make use of C2 pointers : No

Read offset correction : 6
Overread into Lead-In and Lead-Out : No
Fill up missing offset samples with silence : Yes
Delete leading and trailing silent blocks : No
Null samples used in CRC calculations : Yes
Used interface : Native Win32 interface for Win NT & 2000

Used output format : User Defined Encoder
Selected bitrate : 128 kBit/s
Quality : High
Add ID3 tag : No
Command line compressor : C:\Program Files (x86)\Exact Audio Copy\Flac\flac.exe
Additional command line options : -V -8 -T “Genre=%genre%” -T “Artist=%artist%” -T “Title=%title%” -T “Album=%albumtitle%” -T “Date=%year%” -T “Tracknumber=%tracknr%” -T “Comment=%comment%” %source%

TOC of the extracted CD

Track | Start | Length | Start sector | End sector
———————————————————
1 | 0:00.00 | 3:30.00 | 0 | 15749
2 | 3:30.00 | 2:30.15 | 15750 | 27014

Range status and errors

Selected range

Filename H:\05 It’s All Over Now\The Rolling Stones – It’s All Over Now (Disc 5).wav

Peak level 99.8 %
Extraction speed 4.6 X
Range quality 99.9 %
Test CRC FC2F124B
Copy CRC FC2F124B
Copy OK

No errors occurred

AccurateRip summary

Track 1 accurately ripped (confidence 7) [CFF89E86] (AR v2)
Track 2 accurately ripped (confidence 6) [4D6CE93B] (AR v2)

All tracks accurately ripped

End of status report

—- CUETools DB Plugin V2.1.6

[CTDB TOCID: 6AItftPWU.Z9mMWgQ2f5USSo6mQ-] found
Submit result: already submitted
Track | CTDB Status
1 | (11/22) Accurately ripped
2 | (11/22) Accurately ripped

==== Log checksum 8D49DFBC6230F2937FFF8EFEF0FD0B3188AE58DBBFE60CE000C385792BFC1B3F ====

Exact Audio Copy V1.3 from 2. September 2016

EAC extraction logfile from 3. February 2017, 18:07

The Rolling Stones / Singles 1963–1965: Tell Me (Disc 7)

Used drive : PLEXTOR DVDR PX-891SA Adapter: 1 ID: 0

Read mode : Secure
Utilize accurate stream : Yes
Defeat audio cache : Yes
Make use of C2 pointers : No

Read offset correction : 6
Overread into Lead-In and Lead-Out : No
Fill up missing offset samples with silence : Yes
Delete leading and trailing silent blocks : No
Null samples used in CRC calculations : Yes
Used interface : Native Win32 interface for Win NT & 2000

Used output format : User Defined Encoder
Selected bitrate : 128 kBit/s
Quality : High
Add ID3 tag : No
Command line compressor : C:\Program Files (x86)\Exact Audio Copy\Flac\flac.exe
Additional command line options : -V -8 -T “Genre=%genre%” -T “Artist=%artist%” -T “Title=%title%” -T “Album=%albumtitle%” -T “Date=%year%” -T “Tracknumber=%tracknr%” -T “Comment=%comment%” %source%

TOC of the extracted CD

Track | Start | Length | Start sector | End sector
———————————————————
1 | 0:00.00 | 2:39.50 | 0 | 11974
2 | 2:39.50 | 2:16.63 | 11975 | 22237

Range status and errors

Selected range

Filename H:\dafnaplus\Singles 1963-1965\07 Tell Me\The Rolling Stones – Singles 1963–1965- Tell Me (Disc 7).wav

Peak level 99.8 %
Extraction speed 4.5 X
Range quality 99.9 %
Test CRC 072BCD69
Copy CRC 072BCD69
Copy OK

No errors occurred

AccurateRip summary

Track 1 accurately ripped (confidence 6) [86F0021C] (AR v2)
Track 2 accurately ripped (confidence 5) [7B9247C4] (AR v2)

All tracks accurately ripped

End of status report

—- CUETools DB Plugin V2.1.6

[CTDB TOCID: RGJmakOPKwJul2Bj2ciW_V.BdJM-] found
Submit result: RGJmakOPKwJul2Bj2ciW_V.BdJM- has been confirmed
Track | CTDB Status
1 | (9/9) Accurately ripped
2 | (9/9) Accurately ripped

==== Log checksum 57122FFCC3E1395B9D41E109CF6B0C35A5F8E13884D183504B22FCC03898C66F ====

Exact Audio Copy V1.3 from 2. September 2016

EAC extraction logfile from 1. February 2017, 22:29

The Rolling Stones / Singles 1963-1965: Not Fade Away (Disc 4)

Used drive : PLEXTOR DVDR PX-891SA Adapter: 1 ID: 0

Read mode : Secure
Utilize accurate stream : Yes
Defeat audio cache : Yes
Make use of C2 pointers : No

Read offset correction : 6
Overread into Lead-In and Lead-Out : No
Fill up missing offset samples with silence : Yes
Delete leading and trailing silent blocks : No
Null samples used in CRC calculations : Yes
Used interface : Native Win32 interface for Win NT & 2000

Used output format : User Defined Encoder
Selected bitrate : 128 kBit/s
Quality : High
Add ID3 tag : No
Command line compressor : C:\Program Files (x86)\Exact Audio Copy\Flac\flac.exe
Additional command line options : -V -8 -T “Genre=%genre%” -T “Artist=%artist%” -T “Title=%title%” -T “Album=%albumtitle%” -T “Date=%year%” -T “Tracknumber=%tracknr%” -T “Comment=%comment%” %source%

TOC of the extracted CD

Track | Start | Length | Start sector | End sector
———————————————————
1 | 0:00.00 | 1:48.05 | 0 | 8104
2 | 1:48.05 | 2:39.12 | 8105 | 20041

Range status and errors

Selected range

Filename H:\dafnaplus\Singles 1963-1965\04 Not Fade Away\The Rolling Stones – Singles 1963-1965- Not Fade Away (Disc 4).wav

Peak level 99.8 %
Extraction speed 4.3 X
Range quality 99.9 %
Test CRC 0C5D73AB
Copy CRC 0C5D73AB
Copy OK

No errors occurred

AccurateRip summary

Track 1 accurately ripped (confidence 7) [D9BC69CB] (AR v2)
Track 2 accurately ripped (confidence 6) [AD79C3C9] (AR v2)

All tracks accurately ripped

End of status report

—- CUETools DB Plugin V2.1.6

[CTDB TOCID: X9Zvf5zQg1r.HzM9BV8FRTrWDtY-] found
Submit result: X9Zvf5zQg1r.HzM9BV8FRTrWDtY- has been confirmed
Track | CTDB Status
1 | ( 9/19) Accurately ripped
2 | ( 9/19) Accurately ripped

==== Log checksum 9512BAFE9C3448112ED4B51BD89EE25D79FDC318518A38ED17508F7577E01DD9 ====

Exact Audio Copy V1.3 from 2. September 2016

EAC extraction logfile from 3. February 2017, 21:49

The Rolling Stones / Singles 1963–1965: The Last Time (Disc 11)

Used drive : PLEXTOR DVDR PX-891SA Adapter: 1 ID: 0

Read mode : Secure
Utilize accurate stream : Yes
Defeat audio cache : Yes
Make use of C2 pointers : No

Read offset correction : 6
Overread into Lead-In and Lead-Out : No
Fill up missing offset samples with silence : Yes
Delete leading and trailing silent blocks : No
Null samples used in CRC calculations : Yes
Used interface : Native Win32 interface for Win NT & 2000

Used output format : User Defined Encoder
Selected bitrate : 128 kBit/s
Quality : High
Add ID3 tag : No
Command line compressor : C:\Program Files (x86)\Exact Audio Copy\Flac\flac.exe
Additional command line options : -V -8 -T “Genre=%genre%” -T “Artist=%artist%” -T “Title=%title%” -T “Album=%albumtitle%” -T “Date=%year%” -T “Tracknumber=%tracknr%” -T “Comment=%comment%” %source%

TOC of the extracted CD

Track | Start | Length | Start sector | End sector
———————————————————
1 | 0:00.00 | 3:42.33 | 0 | 16682
2 | 3:42.33 | 2:13.67 | 16683 | 26724

Range status and errors

Selected range

Filename H:\dafnaplus\Singles 1963-1965\11 The Last Time\The Rolling Stones – Singles 1963–1965- The Last Time (Disc 11).wav

Peak level 89.1 %
Extraction speed 5.1 X
Range quality 100.0 %
Test CRC 7F5F94C9
Copy CRC 7F5F94C9
Copy OK

No errors occurred

AccurateRip summary

Track 1 accurately ripped (confidence 7) [DE3D28A8] (AR v2)
Track 2 accurately ripped (confidence 7) [A21367E4] (AR v2)

All tracks accurately ripped

End of status report

—- CUETools DB Plugin V2.1.6

[CTDB TOCID: ytrIL0LQ7Y7AfpSMRrivQtowjrI-] found
Submit result: ytrIL0LQ7Y7AfpSMRrivQtowjrI- has been confirmed
Track | CTDB Status
1 | (10/10) Accurately ripped
2 | (10/10) Accurately ripped

==== Log checksum 2ED37BC55ADCF5F0312D71FEF1B4C72DF2253B65D8727B05B9C6C90EEDFA5A4A ====
4

Exact Audio Copy V1.3 from 2. September 2016

EAC extraction logfile from 3. February 2017, 21:40

The Rolling Stones / Singles 1963–1965: Heart Of Stone (Disc 10)

Used drive : PLEXTOR DVDR PX-891SA Adapter: 1 ID: 0

Read mode : Secure
Utilize accurate stream : Yes
Defeat audio cache : Yes
Make use of C2 pointers : No

Read offset correction : 6
Overread into Lead-In and Lead-Out : No
Fill up missing offset samples with silence : Yes
Delete leading and trailing silent blocks : No
Null samples used in CRC calculations : Yes
Used interface : Native Win32 interface for Win NT & 2000

Used output format : User Defined Encoder
Selected bitrate : 128 kBit/s
Quality : High
Add ID3 tag : No
Command line compressor : C:\Program Files (x86)\Exact Audio Copy\Flac\flac.exe
Additional command line options : -V -8 -T “Genre=%genre%” -T “Artist=%artist%” -T “Title=%title%” -T “Album=%albumtitle%” -T “Date=%year%” -T “Tracknumber=%tracknr%” -T “Comment=%comment%” %source%

TOC of the extracted CD

Track | Start | Length | Start sector | End sector
———————————————————
1 | 0:00.00 | 2:46.17 | 0 | 12466
2 | 2:46.17 | 3:02.53 | 12467 | 26169

Range status and errors

Selected range

Filename H:\dafnaplus\Singles 1963-1965\10 Heart Of Stone\The Rolling Stones – Singles 1963–1965- Heart Of Stone (Disc 10).wav

Peak level 99.8 %
Extraction speed 4.7 X
Range quality 99.9 %
Test CRC 5AA9FA94
Copy CRC 5AA9FA94
Copy OK

No errors occurred

AccurateRip summary

Track 1 accurately ripped (confidence 6) [025555CA] (AR v2)
Track 2 accurately ripped (confidence 6) [E9F63F96] (AR v2)

All tracks accurately ripped

End of status report

—- CUETools DB Plugin V2.1.6

[CTDB TOCID: KVsHK5d.w0lYFTTisuPhZtmPtAk-] found
Submit result: KVsHK5d.w0lYFTTisuPhZtmPtAk- has been confirmed
Track | CTDB Status
1 | ( 8/18) Accurately ripped
2 | ( 8/18) Accurately ripped

==== Log checksum 0E652E33C80232BF82D7477EE194E87981CDF9AAF2410B3FC1D0514DC0B9F7A7 ====

Exact Audio Copy V1.3 from 2. September 2016

EAC extraction logfile from 3. February 2017, 18:15

The Rolling Stones / Singles 1963–1965: Time Is On My Side (Disc 8)

Used drive : PLEXTOR DVDR PX-891SA Adapter: 1 ID: 0

Read mode : Secure
Utilize accurate stream : Yes
Defeat audio cache : Yes
Make use of C2 pointers : No

Read offset correction : 6
Overread into Lead-In and Lead-Out : No
Fill up missing offset samples with silence : Yes
Delete leading and trailing silent blocks : No
Null samples used in CRC calculations : Yes
Used interface : Native Win32 interface for Win NT & 2000

Used output format : User Defined Encoder
Selected bitrate : 128 kBit/s
Quality : High
Add ID3 tag : No
Command line compressor : C:\Program Files (x86)\Exact Audio Copy\Flac\flac.exe
Additional command line options : -V -8 -T “Genre=%genre%” -T “Artist=%artist%” -T “Title=%title%” -T “Album=%albumtitle%” -T “Date=%year%” -T “Tracknumber=%tracknr%” -T “Comment=%comment%” %source%

TOC of the extracted CD

Track | Start | Length | Start sector | End sector
———————————————————
1 | 0:00.00 | 2:53.72 | 0 | 13046
2 | 2:53.72 | 2:28.13 | 13047 | 24159

Range status and errors

Selected range

Filename H:\dafnaplus\Singles 1963-1965\08 Time Is On My Side\The Rolling Stones – Singles 1963–1965- Time Is On My Side (Disc 8).wav

Peak level 99.8 %
Extraction speed 5.0 X
Range quality 100.0 %
Test CRC 59615A1B
Copy CRC 59615A1B
Copy OK

No errors occurred

AccurateRip summary

Track 1 accurately ripped (confidence 7) [E58CFF7C] (AR v2)
Track 2 accurately ripped (confidence 6) [2E82A1A1] (AR v2)

All tracks accurately ripped

End of status report

—- CUETools DB Plugin V2.1.6

[CTDB TOCID: rcsT8T2PGp5FvLfPAbu.8hGjZA0-] found
Submit result: rcsT8T2PGp5FvLfPAbu.8hGjZA0- has been confirmed
Track | CTDB Status
1 | (10/19) Accurately ripped
2 | (10/19) Accurately ripped

==== Log checksum 9D7DB7F55D9291D6ADC606840B3AA961360F66EC4FB1711333036C02DE26289C ====


Leave a Reply

Your email address will not be published. Required fields are marked *

This site uses Akismet to reduce spam. Learn how your comment data is processed.