The Rolling Stones – Shine A Light




No Cover available

Artist: The Rolling Stones
Year: 2008
Genre: Rock
Notes: Discogs
Add. Notes:
Watch Songs on: YouTube
Cover incl.: Yes
Encoder: FLAC
Bitrate: ~1000 kBit/s (44.1 kHz/16 Bit/s)
Log & Cue incl.: Yes/Yes
Size: 777,3 MB
Password: “slam” (without ” “)


All Downloads/Hosters are compatible

Download 1
KatFile.com
Turbobit.net
FileFactory.com
Rapidgator.net
Download 2
KatFile.com
Turbobit.net
FileFactory.com
Rapidgator.net

Tracklist:

1-1 Jumpin' Jack Flash 4:22
1-2 Shattered 4:06
1-3 She Was Hot 4:44
1-4 All Down The Line 4:35
1-5 Loving Cup 4:02
1-6 As Tears Go By 3:31
1-7 Some Girls 4:19
1-8 Just My Imagination 6:39
1-9 Faraway Eyes 4:37
1-10 Champagne & Reefer 5:58
1-11 Tumbling Dice 4:24
1-12 Band Introductions 1:39
1-13 You Got The Silver 3:21
1-14 Connection 3:30

2-1 Martin Scorsese Intro 0:12
2-2 Sympathy For The Devil 5:56
2-3 Live With Me 3:53
2-4 Start Me Up 4:05
2-5 Brown Sugar 5:25
2-6 (I Can’t Get No) Satisfaction 5:37
2-7 Paint It Black 4:28
2-8 Little T&A 4:09
2-9 I'm Free 3:30
2-10 Shine A Light 4:05

EAC-Log, CUE-Sheed & NFO:

Click to open spoiler
Exact Audio Copy V1.0 beta 3 from 29. August 2011

EAC extraction logfile from 6. April 2013, 14:15

The Rolling Stones / Shine A Light (Disc 1) (1764747)

Used drive : PLEXTOR DVDR PX-891SA Adapter: 1 ID: 0

Read mode : Secure
Utilize accurate stream : Yes
Defeat audio cache : Yes
Make use of C2 pointers : No

Read offset correction : 6
Overread into Lead-In and Lead-Out : No
Fill up missing offset samples with silence : Yes
Delete leading and trailing silent blocks : No
Null samples used in CRC calculations : Yes
Used interface : Native Win32 interface for Win NT & 2000

Used output format : User Defined Encoder
Selected bitrate : 1024 kBit/s
Quality : High
Add ID3 tag : No
Command line compressor : C:\Program Files\Exact Audio Copy\Flac\flac.exe
Additional command line options : -V -8 -T “Genre=%genre%” -T “Artist=%artist%” -T “Title=%title%” -T “Album=%albumtitle%” -T “Date=%year%” -T “Tracknumber=%tracknr%” -T “Comment=%comment%” %source%

TOC of the extracted CD

Track | Start | Length | Start sector | End sector
———————————————————
1 | 0:00.00 | 4:22.70 | 0 | 19719
2 | 4:22.70 | 4:06.00 | 19720 | 38169
3 | 8:28.70 | 4:44.25 | 38170 | 59494
4 | 13:13.20 | 4:35.42 | 59495 | 80161
5 | 17:48.62 | 4:02.15 | 80162 | 98326
6 | 21:51.02 | 3:31.70 | 98327 | 114221
7 | 25:22.72 | 4:19.13 | 114222 | 133659
8 | 29:42.10 | 6:39.65 | 133660 | 163649
9 | 36:22.00 | 4:37.02 | 163650 | 184426
10 | 40:59.02 | 5:58.20 | 184427 | 211296
11 | 46:57.22 | 4:24.58 | 211297 | 231154
12 | 51:22.05 | 1:39.67 | 231155 | 238646
13 | 53:01.72 | 3:21.53 | 238647 | 253774
14 | 56:23.50 | 3:30.67 | 253775 | 269591

Range status and errors

Selected range

Filename H:\dafnaplus\Rolling Stones – Shine A Light\Cd1\The Rolling Stones – Shine A Light (Disc 1) (1764747).wav

Peak level 98.7 %
Extraction speed 8.7 X
Range quality 99.9 %
Test CRC 1EE6728F
Copy CRC 1EE6728F
Copy OK

No errors occurred

AccurateRip summary

Track 1 accurately ripped (confidence 17) [85100C23] (AR v2)
Track 2 accurately ripped (confidence 17) [84B87F4E] (AR v2)
Track 3 accurately ripped (confidence 17) [D8888374] (AR v2)
Track 4 accurately ripped (confidence 17) [E95A8536] (AR v2)
Track 5 accurately ripped (confidence 17) [1852C4A6] (AR v2)
Track 6 accurately ripped (confidence 17) [3DA8E3DC] (AR v2)
Track 7 accurately ripped (confidence 17) [56D9E1CD] (AR v2)
Track 8 accurately ripped (confidence 17) [F6427479] (AR v2)
Track 9 accurately ripped (confidence 17) [48B06796] (AR v2)
Track 10 accurately ripped (confidence 17) [E4F5869D] (AR v2)
Track 11 accurately ripped (confidence 17) [2EFCE0E2] (AR v2)
Track 12 accurately ripped (confidence 17) [6E8746DA] (AR v2)
Track 13 accurately ripped (confidence 18) [E9292EE9] (AR v2)
Track 14 accurately ripped (confidence 17) [80459A96] (AR v2)

All tracks accurately ripped

End of status report

==== Log checksum 23C25DFAB1ABFB9E119199C14F96F46F2787879A022856927DE035E6B36CF514 ====

Exact Audio Copy V1.0 beta 3 from 29. August 2011

EAC extraction logfile from 6. April 2013, 14:40

The Rolling Stones / Shine A Light (Disc 2) (1764747)

Used drive : PLEXTOR DVDR PX-891SA Adapter: 1 ID: 0

Read mode : Secure
Utilize accurate stream : Yes
Defeat audio cache : Yes
Make use of C2 pointers : No

Read offset correction : 6
Overread into Lead-In and Lead-Out : No
Fill up missing offset samples with silence : Yes
Delete leading and trailing silent blocks : No
Null samples used in CRC calculations : Yes
Used interface : Native Win32 interface for Win NT & 2000

Used output format : User Defined Encoder
Selected bitrate : 1024 kBit/s
Quality : High
Add ID3 tag : No
Command line compressor : C:\Program Files\Exact Audio Copy\Flac\flac.exe
Additional command line options : -V -8 -T “Genre=%genre%” -T “Artist=%artist%” -T “Title=%title%” -T “Album=%albumtitle%” -T “Date=%year%” -T “Tracknumber=%tracknr%” -T “Comment=%comment%” %source%

TOC of the extracted CD

Track | Start | Length | Start sector | End sector
———————————————————
1 | 0:00.00 | 0:12.30 | 0 | 929
2 | 0:12.30 | 5:56.47 | 930 | 27676
3 | 6:09.02 | 3:53.73 | 27677 | 45224
4 | 10:03.00 | 4:05.45 | 45225 | 63644
5 | 14:08.45 | 5:25.30 | 63645 | 88049
6 | 19:34.00 | 5:37.05 | 88050 | 113329
7 | 25:11.05 | 4:28.27 | 113330 | 133456
8 | 29:39.32 | 4:09.23 | 133457 | 152154
9 | 33:48.55 | 3:30.70 | 152155 | 167974
10 | 37:19.50 | 4:05.10 | 167975 | 186359

Range status and errors

Selected range

Filename H:\dafnaplus\Rolling Stones – Shine A Light\Cd2\The Rolling Stones – Shine A Light (Disc 2) (1764747).wav

Peak level 98.7 %
Extraction speed 8.1 X
Range quality 100.0 %
Test CRC 3CEE3B87
Copy CRC 3CEE3B87
Copy OK

No errors occurred

AccurateRip summary

Track 1 accurately ripped (confidence 16) [4DCC4A9E] (AR v2)
Track 2 accurately ripped (confidence 16) [1FCD7A1F] (AR v2)
Track 3 accurately ripped (confidence 16) [98063E28] (AR v2)
Track 4 accurately ripped (confidence 16) [22963BF7] (AR v2)
Track 5 accurately ripped (confidence 16) [7D0DC05A] (AR v2)
Track 6 accurately ripped (confidence 16) [F420603A] (AR v2)
Track 7 accurately ripped (confidence 16) [F681FF10] (AR v2)
Track 8 accurately ripped (confidence 17) [6458BC39] (AR v2)
Track 9 accurately ripped (confidence 16) [6A2E2035] (AR v2)
Track 10 accurately ripped (confidence 16) [B08B5BDD] (AR v2)

All tracks accurately ripped

End of status report

==== Log checksum E71E3341715B20F182382D4BBF83CCD2E84065D22654873EF4C7257A786580EC ====

REM GENRE Rock
REM DATE 2008
REM DISCID BA0E0A0E
REM COMMENT “ExactAudioCopy v1.0b3”
CATALOG 0602517655843
PERFORMER “The Rolling Stones”
TITLE “Shine A Light (Disc 1) (1764747)”
FILE “The Rolling Stones – Shine A Light (Disc 1) (1764747).flac” WAVE
TRACK 01 AUDIO
TITLE “Jumpin’ Jack Flash”
PERFORMER “The Rolling Stones”
ISRC GBUM70802505
INDEX 01 00:00:00
TRACK 02 AUDIO
TITLE “Shattered”
PERFORMER “The Rolling Stones”
ISRC GBUM70802475
INDEX 01 04:22:70
TRACK 03 AUDIO
TITLE “She Was Hot”
PERFORMER “The Rolling Stones”
ISRC GBUM70802457
INDEX 01 08:28:70
TRACK 04 AUDIO
TITLE “All Down The Line”
PERFORMER “The Rolling Stones”
ISRC GBUM70802447
INDEX 01 13:13:20
TRACK 05 AUDIO
TITLE “Loving Cup (with Jack White III)”
PERFORMER “The Rolling Stones”
ISRC GBUM70802499
INDEX 01 17:48:62
TRACK 06 AUDIO
TITLE “As Tears Go By”
PERFORMER “The Rolling Stones”
ISRC GBUM70802519
INDEX 01 21:51:02
TRACK 07 AUDIO
TITLE “Some Girls”
PERFORMER “The Rolling Stones”
ISRC GBUM70802455
INDEX 01 25:22:72
TRACK 08 AUDIO
TITLE “Just My Imagination (Running Away With Me)”
PERFORMER “The Rolling Stones”
ISRC GBUM70802502
INDEX 01 29:42:10
TRACK 09 AUDIO
TITLE “Faraway Eyes”
PERFORMER “The Rolling Stones”
ISRC GBUM70802510
INDEX 01 36:22:00
TRACK 10 AUDIO
TITLE “Champagne & Reefer (with Buddy Guy)”
PERFORMER “The Rolling Stones”
ISRC GBUM70802515
INDEX 01 40:59:02
TRACK 11 AUDIO
TITLE “Tumbling Dice”
PERFORMER “The Rolling Stones”
ISRC GBUM70802450
INDEX 01 46:57:22
TRACK 12 AUDIO
TITLE “Band Introductions”
PERFORMER “The Rolling Stones”
ISRC GBUM70802637
INDEX 01 51:22:05
TRACK 13 AUDIO
TITLE “You Got The Silver”
PERFORMER “The Rolling Stones”
ISRC GBUM70802448
INDEX 01 53:01:72
TRACK 14 AUDIO
TITLE “Connection”
PERFORMER “The Rolling Stones”
ISRC GBUM70802513
INDEX 01 56:23:50

REM GENRE Rock
REM DATE 2008
REM DISCID 6209B40A
REM COMMENT “ExactAudioCopy v1.0b3”
CATALOG 0602517655850
PERFORMER “The Rolling Stones”
TITLE “Shine A Light (Disc 2) (1764747)”
FILE “The Rolling Stones – Shine A Light (Disc 2) (1764747).flac” WAVE
TRACK 01 AUDIO
TITLE “Martin Scorsese Intro”
PERFORMER “The Rolling Stones”
ISRC GBUM70803078
INDEX 01 00:00:00
TRACK 02 AUDIO
TITLE “Sympathy For The Devil”
PERFORMER “The Rolling Stones”
ISRC GBUM70802942
INDEX 01 00:12:30
TRACK 03 AUDIO
TITLE “Live With Me (With Christina Aguilera)”
PERFORMER “The Rolling Stones”
ISRC GBUM70802500
INDEX 01 06:09:02
TRACK 04 AUDIO
TITLE “Start Me Up”
PERFORMER “The Rolling Stones”
ISRC GBUM70802453
INDEX 01 10:03:00
TRACK 05 AUDIO
TITLE “Brown Sugar”
PERFORMER “The Rolling Stones”
ISRC GBUM70802941
INDEX 01 14:08:45
TRACK 06 AUDIO
TITLE “(I Can’t Get No) Satisfaction”
PERFORMER “The Rolling Stones”
ISRC GBUM70802446
INDEX 01 19:34:00
TRACK 07 AUDIO
TITLE “Paint It Black”
PERFORMER “The Rolling Stones”
ISRC GBUM70802497
INDEX 00 25:10:57
INDEX 01 25:11:05
TRACK 08 AUDIO
TITLE “Little T & A”
PERFORMER “The Rolling Stones”
ISRC GBUM70802501
INDEX 00 29:38:65
INDEX 01 29:39:32
TRACK 09 AUDIO
TITLE “I’m Free”
PERFORMER “The Rolling Stones”
ISRC GBUM70802507
INDEX 01 33:48:55
TRACK 10 AUDIO
TITLE “Shine A Light”
PERFORMER “The Rolling Stones”
ISRC GBUM70802456
INDEX 00 37:19:05
INDEX 01 37:19:50


Leave a Reply

Your email address will not be published. Required fields are marked *

Enter the text from the image below
 

This site uses Akismet to reduce spam. Learn how your comment data is processed.