The Rolling Stones – Shine A Light




No Cover available

Artist: The Rolling Stones
Year: 2008
Genre: Rock
Notes: Discogs
Add. Notes:
Watch Songs on: YouTube
Cover incl.: Yes
Encoder: FLAC
Bitrate: ~1000 kBit/s (44.1 kHz/16 Bit/s)
Log & Cue incl.: Yes/Yes
Size: 556 MB
Password: “slam” (without ” “)


All Downloads/Hosters are compatible

Download 1
KatFile.com
Turbobit.net
Rapidgator.net
FileFactory.com
Download 2
KatFile.com
Turbobit.net
Rapidgator.net
FileFactory.com

Tracklist:

1 Jumpin' Jack Flash 4:23
2 Shattered 4:06
3 She Was Hot 4:44
4 All Down The Line 4:36
5 Loving Cup (With Jack White III) 4:02
6 As Tears Go By 3:32
7 Some Girls 4:20
8 Just My Imagination 6:40
9 Faraway Eyes 4:37
10 Champagne & Reefer (With Buddy Guy) 5:59
11 Band Introductions 1:40
12 You Got The Silver 3:22
13 Connection 3:38
14 Sympathy For The Devil 5:56
15 Live With Me (With Christina Aguilera) 3:54
16 Start Me Up 4:06
17 Brown Sugar 5:36

EAC-Log, CUE-Sheed & NFO:

Click to open spoiler
Exact Audio Copy V1.0 beta 3 from 29. August 2011

EAC extraction logfile from 11. March 2013, 10:08

The Rolling Stones / Shine A Light [1CD US]

Used drive : HL-DT-STDVD+-RW GH50N Adapter: 0 ID: 1

Read mode : Secure
Utilize accurate stream : Yes
Defeat audio cache : Yes
Make use of C2 pointers : No

Read offset correction : 667
Overread into Lead-In and Lead-Out : No
Fill up missing offset samples with silence : Yes
Delete leading and trailing silent blocks : No
Null samples used in CRC calculations : Yes
Used interface : Native Win32 interface for Win NT & 2000

Used output format : User Defined Encoder
Selected bitrate : 768 kBit/s
Quality : High
Add ID3 tag : No
Command line compressor : C:\Program Files (x86)\Exact Audio Copy\FLAC\FLAC.EXE
Additional command line options : -V -8 -T “Date=%year%” -T “Genre=%genre%” %source%

TOC of the extracted CD

Track | Start | Length | Start sector | End sector
———————————————————
1 | 0:00.00 | 4:22.70 | 0 | 19719
2 | 4:22.70 | 4:06.02 | 19720 | 38171
3 | 8:28.72 | 4:44.10 | 38172 | 59481
4 | 13:13.07 | 4:35.58 | 59482 | 80164
5 | 17:48.65 | 4:02.05 | 80165 | 98319
6 | 21:50.70 | 3:31.50 | 98320 | 114194
7 | 25:22.45 | 4:19.40 | 114195 | 133659
8 | 29:42.10 | 6:39.70 | 133660 | 163654
9 | 36:22.05 | 4:37.12 | 163655 | 184441
10 | 40:59.17 | 5:58.48 | 184442 | 211339
11 | 46:57.65 | 1:39.67 | 211340 | 218831
12 | 48:37.57 | 3:22.20 | 218832 | 234001
13 | 52:00.02 | 3:37.55 | 234002 | 250331
14 | 55:37.57 | 5:56.25 | 250332 | 277056
15 | 61:34.07 | 3:54.23 | 277057 | 294629
16 | 65:28.30 | 4:05.45 | 294630 | 313049
17 | 69:34.00 | 5:36.25 | 313050 | 338274

Range status and errors

Selected range

Filename C:\222\RUTRA1\SALUS\The Rolling Stones – Shine A Light [1CD US].wav

Peak level 99.8 %
Extraction speed 3.4 X
Range quality 100.0 %
Test CRC 5FFC874B
Copy CRC 5FFC874B
Copy OK

No errors occurred

AccurateRip summary

Track 1 accurately ripped (confidence 6) [6620A721] (AR v2)
Track 2 accurately ripped (confidence 6) [EF3D4B34] (AR v2)
Track 3 accurately ripped (confidence 6) [1FEDD2BF] (AR v2)
Track 4 accurately ripped (confidence 6) [6A244C5E] (AR v2)
Track 5 accurately ripped (confidence 6) [275F7AA6] (AR v2)
Track 6 accurately ripped (confidence 6) [839B36C4] (AR v2)
Track 7 accurately ripped (confidence 6) [B18F6AC1] (AR v2)
Track 8 accurately ripped (confidence 6) [63E6CD5A] (AR v2)
Track 9 accurately ripped (confidence 6) [0599E549] (AR v2)
Track 10 accurately ripped (confidence 6) [5DE5FCE7] (AR v2)
Track 11 accurately ripped (confidence 6) [8C7AA8AD] (AR v2)
Track 12 accurately ripped (confidence 6) [8BBDD403] (AR v2)
Track 13 accurately ripped (confidence 6) [BAC39E46] (AR v2)
Track 14 accurately ripped (confidence 6) [B660286C] (AR v2)
Track 15 accurately ripped (confidence 6) [2F0FBF36] (AR v2)
Track 16 accurately ripped (confidence 6) [1AE65C15] (AR v2)
Track 17 accurately ripped (confidence 6) [C4734610] (AR v2)

All tracks accurately ripped

End of status report

==== Log checksum B1F93E71EC9EB4806DC6E3B45F5E9ACDEFEE1C46F1BC22012F3291BB10C99AE7 ====

REM GENRE Rock
REM DATE 2008
REM DISCID F0119E11
REM COMMENT “ExactAudioCopy v1.0b3”
CATALOG 0602517647435
PERFORMER “The Rolling Stones”
TITLE “Shine A Light [1CD US]”
FILE “The Rolling Stones – Shine A Light [1CD US].flac” WAVE
TRACK 01 AUDIO
TITLE “Jumpin’ Jack Flash”
PERFORMER “The Rolling Stones”
ISRC GBUM70802505
INDEX 01 00:00:00
TRACK 02 AUDIO
TITLE “Shattered”
PERFORMER “The Rolling Stones”
ISRC GBUM70802475
INDEX 01 04:22:70
TRACK 03 AUDIO
TITLE “She was hot”
PERFORMER “The Rolling Stones”
ISRC GBUM70802457
INDEX 01 08:28:72
TRACK 04 AUDIO
TITLE “All down the line”
PERFORMER “The Rolling Stones”
ISRC GBUM70802447
INDEX 01 13:13:07
TRACK 05 AUDIO
TITLE “Loving cup (with Jack White III)”
PERFORMER “The Rolling Stones”
ISRC GBUM70802499
INDEX 01 17:48:65
TRACK 06 AUDIO
TITLE “As tears go by”
PERFORMER “The Rolling Stones”
ISRC GBUM70802519
INDEX 01 21:50:70
TRACK 07 AUDIO
TITLE “Some girls”
PERFORMER “The Rolling Stones”
ISRC GBUM70802455
INDEX 01 25:22:45
TRACK 08 AUDIO
TITLE “Just my imagination”
PERFORMER “The Rolling Stones”
ISRC GBUM70802502
INDEX 01 29:42:10
TRACK 09 AUDIO
TITLE “Faraway eyes”
PERFORMER “The Rolling Stones”
ISRC GBUM70802510
INDEX 01 36:22:05
TRACK 10 AUDIO
TITLE “Champagne & reefer (with Buddy Guy)”
PERFORMER “The Rolling Stones”
ISRC GBUM70802515
INDEX 01 40:59:17
TRACK 11 AUDIO
TITLE “Band introductions”
PERFORMER “The Rolling Stones”
ISRC GBUM70802637
INDEX 01 46:57:65
TRACK 12 AUDIO
TITLE “You got the silver”
PERFORMER “The Rolling Stones”
ISRC GBUM70802448
INDEX 01 48:37:57
TRACK 13 AUDIO
TITLE “Connection”
PERFORMER “The Rolling Stones”
ISRC GBUM70802513
INDEX 01 52:00:02
TRACK 14 AUDIO
TITLE “Sympathy for the devil”
PERFORMER “The Rolling Stones”
ISRC GBUM70802452
INDEX 01 55:37:57
TRACK 15 AUDIO
TITLE “Live with me (with Christina Aguilera)”
PERFORMER “The Rolling Stones”
ISRC GBUM70802500
INDEX 01 61:34:07
TRACK 16 AUDIO
TITLE “Start me up”
PERFORMER “The Rolling Stones”
ISRC GBUM70802453
INDEX 01 65:28:30
TRACK 17 AUDIO
TITLE “Brown sugar”
PERFORMER “The Rolling Stones”
ISRC GBUM70802518
INDEX 01 69:34:00


Leave a Reply

Your email address will not be published. Required fields are marked *

Enter the text from the image below
 

This site uses Akismet to reduce spam. Learn how your comment data is processed.