The Rolling Stones – Rolled Gold + (Remastered)




Artist: The Rolling Stones
Year: 1975/2007
Genre: Rock
Notes: Discogs
Add. Notes: Remastered
Cover incl.: Yes
Encoder: FLAC
Bitrate: ~700 kBit/s (44.1 kHz/16 Bit/s)
Log & Cue incl.: Yes
Size: 787,2 MB
Password: “slam” (without ” “)


All Downloads/Hosters are compatible

Download 1
KatFile.com
Turbobit.net
Rapidgator.net
Download 2
KatFile.com
Turbobit.net
Rapidgator.net

Tracklist:

1.1 - Come On - 1:49
1.2 - I Wanna Be Your Man - 1:43
1.3 - Not Fade Away - 1:48
1.4 - Carol - 2:34
1.5 - Tell Me - 3:49
1.6 - It's All Over Now - 3:26
1.7 - Little Red Rooster - 3:06
1.8 - Heart Of Stone - 2:50
1.9 - Time Is On My Side - 2:59
1.10 - The Last Time - 3:42
1.11 - Play With Fire - 2:13
1.12 - (I Can't Get No) Satisfaction - 3:43
1.13 - Get Off Of My Cloud - 2:54
1.14 - I'm Free - 2:23
1.15 - As Tears Go By - 2:46
1.16 - Lady Jane - 3:08
1.17 - Paint It Black - 3:24
1.18 - Mother's Little Helper - 2:46
1.19 - 19th Nervous Breakdown - 3:58
1.20 - Under My Thumb - 3:42
1.21 - Out Of Time - 5:37
1.22 - Yesterday's Papers - 2:04
1.23 - Let's Spend The Night Together - 3:37
1.24 - Have You Seen Your Mother, Baby, Standing In 
The Shadow? - 2:34

2.1 - Ruby Tuesday - 3:15
2.2 - Dandelion - 3:31
2.3 - She's A Rainbow - 4:14
2.4 - We Love You - 4:23
2.5 - 2000 Light Years From Home - 4:46
2.6 - Jumpin' Jack Flash - 3:43
2.7 - Street Fighting Man - 3:15
2.8 - Sympathy For The Devil - 6:19
2.9 - No Expectations - 3:56
2.10 - Let It Bleed - 5:28
2.11 - Midnight Rambler - 6:54
2.12 - Gimme Shelter - 4:32
2.13 - You Can't Always Get What You Want - 7:28
2.14 - Brown Sugar - 3:50
2.15 - Honky Tonk Women - 3:01
2.16 - Wild Horses - 5:42

EAC-Log, CUE-Sheed & NFO:

Click to open spoiler
Exact Audio Copy V1.0 beta 3 from 29. August 2011

EAC extraction logfile from 7. July 2013, 20:55

The Rolling Stones / Rolled Gold + (Disc-1)

Used drive : _NEC DVD+-RW ND-6500A Adapter: 1 ID: 0

Read mode : Secure
Utilize accurate stream : Yes
Defeat audio cache : Yes
Make use of C2 pointers : No

Read offset correction : 48
Overread into Lead-In and Lead-Out : No
Fill up missing offset samples with silence : Yes
Delete leading and trailing silent blocks : No
Null samples used in CRC calculations : Yes
Used interface : Native Win32 interface for Win NT & 2000

Used output format : User Defined Encoder
Selected bitrate : 768 kBit/s
Quality : High
Add ID3 tag : No
Command line compressor : C:\Program Files\Exact Audio Copy\FLAC\FLAC.EXE
Additional command line options : -V -8 -T “Date=%year%” -T “Genre=%genre%” %source%

TOC of the extracted CD

Track | Start | Length | Start sector | End sector
———————————————————
1 | 0:00.00 | 1:49.41 | 0 | 8215
2 | 1:49.41 | 1:43.50 | 8216 | 15990
3 | 3:33.16 | 1:48.25 | 15991 | 24115
4 | 5:21.41 | 2:34.05 | 24116 | 35670
5 | 7:55.46 | 3:49.26 | 35671 | 52871
6 | 11:44.72 | 3:26.67 | 52872 | 68388
7 | 15:11.64 | 3:06.73 | 68389 | 82411
8 | 18:18.62 | 2:50.13 | 82412 | 95174
9 | 21:09.00 | 2:59.02 | 95175 | 108601
10 | 24:08.02 | 3:42.00 | 108602 | 125251
11 | 27:50.02 | 2:13.58 | 125252 | 135284
12 | 30:03.60 | 3:43.60 | 135285 | 152069
13 | 33:47.45 | 2:54.71 | 152070 | 165190
14 | 36:42.41 | 2:23.72 | 165191 | 175987
15 | 39:06.38 | 2:46.04 | 175988 | 188441
16 | 41:52.42 | 3:08.48 | 188442 | 202589
17 | 45:01.15 | 3:24.08 | 202590 | 217897
18 | 48:25.23 | 2:46.49 | 217898 | 230396
19 | 51:11.72 | 3:58.72 | 230397 | 248318
20 | 55:10.69 | 3:42.58 | 248319 | 265026
21 | 58:53.52 | 5:37.21 | 265027 | 290322
22 | 64:30.73 | 2:04.34 | 290323 | 299656
23 | 66:35.32 | 3:37.30 | 299657 | 315961
24 | 70:12.62 | 2:34.03 | 315962 | 327514

Range status and errors

Selected range

Filename E:\RUTRA\2007 – Rolled Gold +\CD1\The Rolling Stones – Rolled Gold + (Disc-1).wav

Peak level 85.9 %
Extraction speed 4.2 X
Range quality 100.0 %
Test CRC 0407E9A3
Copy CRC 0407E9A3
Copy OK

No errors occurred

AccurateRip summary

Track 1 accurately ripped (confidence 26) [B087EFFF] (AR v2)
Track 2 accurately ripped (confidence 26) [4B04A547] (AR v2)
Track 3 accurately ripped (confidence 26) [805CB6D0] (AR v2)
Track 4 accurately ripped (confidence 26) [AA5ECE99] (AR v2)
Track 5 accurately ripped (confidence 26) [29B00B11] (AR v2)
Track 6 accurately ripped (confidence 26) [A3FD64FF] (AR v2)
Track 7 accurately ripped (confidence 26) [7E33DB8A] (AR v2)
Track 8 accurately ripped (confidence 26) [AF60E958] (AR v2)
Track 9 accurately ripped (confidence 26) [216C433B] (AR v2)
Track 10 accurately ripped (confidence 26) [2DFB0E9D] (AR v2)
Track 11 accurately ripped (confidence 26) [CEEDB85B] (AR v2)
Track 12 accurately ripped (confidence 26) [544E1A68] (AR v2)
Track 13 accurately ripped (confidence 26) [801AA627] (AR v2)
Track 14 accurately ripped (confidence 26) [C81AE128] (AR v2)
Track 15 accurately ripped (confidence 26) [7DA3FF84] (AR v2)
Track 16 accurately ripped (confidence 26) [642159CC] (AR v2)
Track 17 accurately ripped (confidence 26) [28E1781D] (AR v2)
Track 18 accurately ripped (confidence 26) [3B6987AB] (AR v2)
Track 19 accurately ripped (confidence 26) [4025B6A6] (AR v2)
Track 20 accurately ripped (confidence 26) [335103B4] (AR v2)
Track 21 accurately ripped (confidence 25) [C8D223B2] (AR v2)
Track 22 accurately ripped (confidence 26) [C603CCE7] (AR v2)
Track 23 accurately ripped (confidence 26) [3C084816] (AR v2)
Track 24 accurately ripped (confidence 26) [A1AF64BE] (AR v2)

All tracks accurately ripped

End of status report

==== Log checksum BE12DC208B8494C5C3A5602B91351D482E3EE0FEE9A37CAC91D9603D1C87B663 ====

Exact Audio Copy V1.0 beta 3 from 29. August 2011

EAC extraction logfile from 7. July 2013, 21:37

The Rolling Stones / Rolled Gold + (Disc-2)

Used drive : _NEC DVD+-RW ND-6500A Adapter: 1 ID: 0

Read mode : Secure
Utilize accurate stream : Yes
Defeat audio cache : Yes
Make use of C2 pointers : No

Read offset correction : 48
Overread into Lead-In and Lead-Out : No
Fill up missing offset samples with silence : Yes
Delete leading and trailing silent blocks : No
Null samples used in CRC calculations : Yes
Used interface : Native Win32 interface for Win NT & 2000

Used output format : User Defined Encoder
Selected bitrate : 768 kBit/s
Quality : High
Add ID3 tag : No
Command line compressor : C:\Program Files\Exact Audio Copy\FLAC\FLAC.EXE
Additional command line options : -V -8 -T “Date=%year%” -T “Genre=%genre%” %source%

TOC of the extracted CD

Track | Start | Length | Start sector | End sector
———————————————————
1 | 0:00.00 | 3:15.50 | 0 | 14674
2 | 3:15.50 | 3:31.44 | 14675 | 30543
3 | 6:47.19 | 4:14.35 | 30544 | 49628
4 | 11:01.54 | 4:23.69 | 49629 | 69422
5 | 15:25.48 | 4:46.36 | 69423 | 90908
6 | 20:12.09 | 3:43.25 | 90909 | 107658
7 | 23:55.34 | 3:15.40 | 107659 | 122323
8 | 27:10.74 | 6:19.13 | 122324 | 150761
9 | 33:30.12 | 3:56.35 | 150762 | 168496
10 | 37:26.47 | 5:28.24 | 168497 | 193120
11 | 42:54.71 | 6:54.31 | 193121 | 224201
12 | 49:49.27 | 4:32.68 | 224202 | 244669
13 | 54:22.20 | 7:28.07 | 244670 | 278276
14 | 61:50.27 | 3:50.14 | 278277 | 295540
15 | 65:40.41 | 3:01.20 | 295541 | 309135
16 | 68:41.61 | 5:42.08 | 309136 | 334793

Range status and errors

Selected range

Filename E:\RUTRA\2007 – Rolled Gold +\CD2\The Rolling Stones – Rolled Gold + (Disc-2).wav

Peak level 92.1 %
Extraction speed 4.3 X
Range quality 100.0 %
Test CRC 46BBA1D4
Copy CRC 46BBA1D4
Copy OK

No errors occurred

AccurateRip summary

Track 1 accurately ripped (confidence 22) [18F20533] (AR v2)
Track 2 accurately ripped (confidence 22) [23186A38] (AR v2)
Track 3 accurately ripped (confidence 22) [EE924626] (AR v2)
Track 4 accurately ripped (confidence 22) [308E317E] (AR v2)
Track 5 accurately ripped (confidence 22) [64292030] (AR v2)
Track 6 accurately ripped (confidence 22) [02F312F0] (AR v2)
Track 7 accurately ripped (confidence 22) [86B4B32C] (AR v2)
Track 8 accurately ripped (confidence 22) [E8850306] (AR v2)
Track 9 accurately ripped (confidence 22) [50D02BEA] (AR v2)
Track 10 accurately ripped (confidence 22) [79D0101E] (AR v2)
Track 11 accurately ripped (confidence 22) [F8850982] (AR v2)
Track 12 accurately ripped (confidence 22) [CC8944C1] (AR v2)
Track 13 accurately ripped (confidence 23) [0D90B0F7] (AR v2)
Track 14 accurately ripped (confidence 22) [25FE79D4] (AR v2)
Track 15 accurately ripped (confidence 22) [07DE36CA] (AR v2)
Track 16 accurately ripped (confidence 22) [C17573F1] (AR v2)

All tracks accurately ripped

End of status report

==== Log checksum 3F20C358DFECBC1C93776160688992FBD33E45E523B714EC3D4320CD81BEC8CD ====

REM GENRE Rock
REM DATE 2007
REM DISCID 28110E18
REM COMMENT “ExactAudioCopy v1.0b3”
PERFORMER “The Rolling Stones”
TITLE “Rolled Gold + (Disc-1)”
FILE “The Rolling Stones – Rolled Gold + (Disc-1).flac” WAVE
TRACK 01 AUDIO
TITLE “Come On”
PERFORMER “The Rolling Stones”
INDEX 01 00:00:00
TRACK 02 AUDIO
TITLE “I Wanna Be Your Man”
PERFORMER “The Rolling Stones”
INDEX 00 01:48:33
INDEX 01 01:49:41
TRACK 03 AUDIO
TITLE “Not Fade Away”
PERFORMER “The Rolling Stones”
INDEX 00 03:32:50
INDEX 01 03:33:16
TRACK 04 AUDIO
TITLE “Carol”
PERFORMER “The Rolling Stones”
INDEX 00 05:20:46
INDEX 01 05:21:41
TRACK 05 AUDIO
TITLE “Tell Me”
PERFORMER “The Rolling Stones”
INDEX 00 07:55:21
INDEX 01 07:55:46
TRACK 06 AUDIO
TITLE “It’s All Over Now”
PERFORMER “The Rolling Stones”
INDEX 00 11:43:03
INDEX 01 11:44:72
TRACK 07 AUDIO
TITLE “Little Red Rooster”
PERFORMER “The Rolling Stones”
INDEX 00 15:11:12
INDEX 01 15:11:64
TRACK 08 AUDIO
TITLE “Heart Of Stone”
PERFORMER “The Rolling Stones”
INDEX 00 18:16:40
INDEX 01 18:18:62
TRACK 09 AUDIO
TITLE “Time Is On My Side”
PERFORMER “The Rolling Stones”
INDEX 00 21:07:60
INDEX 01 21:09:00
TRACK 10 AUDIO
TITLE “The Last Time”
PERFORMER “The Rolling Stones”
INDEX 00 24:07:35
INDEX 01 24:08:02
TRACK 11 AUDIO
TITLE “Play With Fire”
PERFORMER “The Rolling Stones”
INDEX 00 27:49:01
INDEX 01 27:50:02
TRACK 12 AUDIO
TITLE “(I Can’t Get No) Satisfaction”
PERFORMER “The Rolling Stones”
INDEX 00 30:02:72
INDEX 01 30:03:60
TRACK 13 AUDIO
TITLE “Get Off Of My Cloud”
PERFORMER “The Rolling Stones”
INDEX 00 33:46:15
INDEX 01 33:47:45
TRACK 14 AUDIO
TITLE “I’m Free”
PERFORMER “The Rolling Stones”
INDEX 00 36:41:47
INDEX 01 36:42:41
TRACK 15 AUDIO
TITLE “As Tears Go By”
PERFORMER “The Rolling Stones”
INDEX 00 39:06:07
INDEX 01 39:06:38
TRACK 16 AUDIO
TITLE “Lady Jane”
PERFORMER “The Rolling Stones”
INDEX 00 41:51:56
INDEX 01 41:52:42
TRACK 17 AUDIO
TITLE “Paint It Black”
PERFORMER “The Rolling Stones”
INDEX 00 45:00:38
INDEX 01 45:01:15
TRACK 18 AUDIO
TITLE “Mothers Little Helper”
PERFORMER “The Rolling Stones”
INDEX 00 48:23:22
INDEX 01 48:25:23
TRACK 19 AUDIO
TITLE “19th Nervous Breakdown”
PERFORMER “The Rolling Stones”
INDEX 00 51:10:42
INDEX 01 51:11:72
TRACK 20 AUDIO
TITLE “Under My Thumb”
PERFORMER “The Rolling Stones”
INDEX 00 55:08:50
INDEX 01 55:10:69
TRACK 21 AUDIO
TITLE “Out Of Time”
PERFORMER “The Rolling Stones”
INDEX 00 58:52:63
INDEX 01 58:53:52
TRACK 22 AUDIO
TITLE “Yesterday’s Papers”
PERFORMER “The Rolling Stones”
INDEX 00 64:29:65
INDEX 01 64:30:73
TRACK 23 AUDIO
TITLE “Let’s Spend The Night Together”
PERFORMER “The Rolling Stones”
INDEX 00 66:33:57
INDEX 01 66:35:32
TRACK 24 AUDIO
TITLE “Have You Seen Your Mother, Baby, Standing In The Shadow?”
PERFORMER “The Rolling Stones”
INDEX 00 70:11:19
INDEX 01 70:12:62

REM GENRE Rock
REM DATE 2007
REM DISCID DA116F10
REM COMMENT “ExactAudioCopy v1.0b3”
PERFORMER “The Rolling Stones”
TITLE “Rolled Gold + (Disc-2)”
FILE “The Rolling Stones – Rolled Gold + (Disc-2).flac” WAVE
TRACK 01 AUDIO
TITLE “Ruby Tuesday”
PERFORMER “The Rolling Stones”
INDEX 01 00:00:00
TRACK 02 AUDIO
TITLE “Dandelion”
PERFORMER “The Rolling Stones”
INDEX 00 03:13:16
INDEX 01 03:15:50
TRACK 03 AUDIO
TITLE “She’s A Rainbow”
PERFORMER “The Rolling Stones”
INDEX 00 06:46:67
INDEX 01 06:47:19
TRACK 04 AUDIO
TITLE “We Love You”
PERFORMER “The Rolling Stones”
INDEX 00 10:58:63
INDEX 01 11:01:54
TRACK 05 AUDIO
TITLE “2000 Light Years From Home”
PERFORMER “The Rolling Stones”
INDEX 00 15:22:22
INDEX 01 15:25:48
TRACK 06 AUDIO
TITLE “Jumpin’ Jack Flash”
PERFORMER “The Rolling Stones”
INDEX 00 20:10:58
INDEX 01 20:12:09
TRACK 07 AUDIO
TITLE “Street Fighting Man”
PERFORMER “The Rolling Stones”
INDEX 00 23:53:50
INDEX 01 23:55:34
TRACK 08 AUDIO
TITLE “Sympathy For The Devil”
PERFORMER “The Rolling Stones”
INDEX 00 27:08:66
INDEX 01 27:10:74
TRACK 09 AUDIO
TITLE “No Expectations”
PERFORMER “The Rolling Stones”
INDEX 00 33:27:72
INDEX 01 33:30:12
TRACK 10 AUDIO
TITLE “Let It Bleed”
PERFORMER “The Rolling Stones”
INDEX 00 37:25:11
INDEX 01 37:26:47
TRACK 11 AUDIO
TITLE “Midnight Rambler”
PERFORMER “The Rolling Stones”
INDEX 00 42:53:27
INDEX 01 42:54:71
TRACK 12 AUDIO
TITLE “Gimme Shelter”
PERFORMER “The Rolling Stones”
INDEX 00 49:47:11
INDEX 01 49:49:27
TRACK 13 AUDIO
TITLE “You Can’t Always Get What You Want”
PERFORMER “The Rolling Stones”
INDEX 00 54:20:07
INDEX 01 54:22:20
TRACK 14 AUDIO
TITLE “Brown Sugar”
PERFORMER “The Rolling Stones”
INDEX 00 61:49:56
INDEX 01 61:50:27
TRACK 15 AUDIO
TITLE “Honky Tonk Women”
PERFORMER “The Rolling Stones”
INDEX 00 65:39:08
INDEX 01 65:40:41
TRACK 16 AUDIO
TITLE “Wild Horses”
PERFORMER “The Rolling Stones”
INDEX 00 68:39:56
INDEX 01 68:41:61


Leave a Reply

Your email address will not be published. Required fields are marked *

This site uses Akismet to reduce spam. Learn how your comment data is processed.