The Rolling Stones – Rocks Off (Japanese Edition)




[Total: 0    Average: 0/5]

Artist: The Rolling Stones
Year: 2012
Genre: Rock
Notes: Discogs
Add. Notes: Japanese Edition
Cover incl.: Yes
Encoder: FLAC
Bitrate: ~900 kBit/s (44.1 kHz/16 Bit/s)
Log & Cue incl.: Yes
Size: 180,12 MB
Password: “slam” (without ” “)


All Downloads/Hosters are compatible

Download 1
Share-online.biz
KatFile.com
Rapidgator.net
Download 2
Share-online.biz
KatFile.com
Rapidgator.net

Tracklist:

1. Rocks Off (4:32)
2. Brown Sugar (3:49)
3. Angie (4:32)
4. It's Only Rock And Roll (But I Like It) (5:07)
5. Start Me Up (3:33)

EAC-Log, CUE-Sheed & NFO:

Click to open spoiler
Exact Audio Copy V1.0 beta 3 from 29. August 2011

Отчёт EAC об извлечении, выполненном 3. июля 2015, 15:46

The Rolling Stones / ROCKS OFF (SHM)

Дисковод: Optiarc DVD RW AD-7203S Adapter: 0 ID: 0

Режим чтения : Достоверность
Использование точного потока : Да
Отключение кэша аудио : Да
Использование указателей C2 : Нет

Коррекция смещения при чтении : 48
Способность читать области Lead-in и Lead-out : Нет
Заполнение пропущенных сэмплов тишиной : Да
Удаление блоков с тишиной в начале и конце : Нет
При вычислениях CRC использовались нулевые сэмплы : Да
Интерфейс : Встроенный Win32-интерфейс для Win NT/2000

Выходной формат : Пользовательский кодировщик
Выбранный битрейт : 128 kBit/s
Качество : Высокий
Добавление ID3-тега : Нет
Утилита сжатия : C:\Program Files\Exact Audio Copy\Flac\flac.exe
Дополнительные параметры : -V -8 -T “Date=%year%” -T “Genre=%genre%” %source%

TOC извлечённого CD

Трек | Старт | Длительность | Начальный сектор | Конечный сектор
———————————————————————
1 | 0:00.00 | 4:33.43 | 0 | 20517
2 | 4:33.43 | 3:50.67 | 20518 | 37834
3 | 8:24.35 | 4:32.72 | 37835 | 58306
4 | 12:57.32 | 5:11.25 | 58307 | 81656
5 | 18:08.57 | 3:33.03 | 81657 | 97634

Характеристики диапазона извлечения и сообщения об ошибках

Выбранный диапазон

Имя файла F:\EAC\The Rolling Stones – ROCKS OFF (SHM)\The Rolling Stones – ROCKS OFF (SHM)\The Rolling Stones – ROCKS OFF (SHM).wav

Пиковый уровень 99.8 %
Скорость извлечения 3.0 X
Качество диапазона 99.9 %
CRC теста 10EFF8AD
CRC копии 10EFF8AD
Копирование… OK

Ошибок не произошло

AccurateRip: сводка

Трек 1 : извлечено точно (доверие 1) [CC2F6309] (AR v2)
Трек 2 : извлечено точно (доверие 1) [F04B692F] (AR v2)
Трек 3 : извлечено точно (доверие 1) [B263D65B] (AR v2)
Трек 4 : извлечено точно (доверие 1) [8C264A32] (AR v2)
Трек 5 : извлечено точно (доверие 1) [9AD47453] (AR v2)

Все треки извлечены точно

Конец отчёта

==== Контрольная сумма отчёта 5DA1A6BEA8B997F77C57B46AFB1ACB11FD49D7BE64F67A6EB16E5416BBD34F32 ====

REM GENRE Blues
REM DATE 2012
REM DISCID 3C051505
REM COMMENT “ExactAudioCopy v1.0b3”
PERFORMER “The Rolling Stones”
TITLE “ROCKS OFF (SHM)”
FILE “The Rolling Stones – ROCKS OFF (SHM).flac” WAVE
TRACK 01 AUDIO
TITLE “Rocks Off”
PERFORMER “The Rolling Stones”
INDEX 01 00:00:00
TRACK 02 AUDIO
TITLE “Brown Sugar”
PERFORMER “The Rolling Stones”
INDEX 00 04:32:33
INDEX 01 04:33:43
TRACK 03 AUDIO
TITLE “Angie”
PERFORMER “The Rolling Stones”
INDEX 00 08:22:51
INDEX 01 08:24:35
TRACK 04 AUDIO
TITLE “It’s Only Rock And Roll (But I Like It)”
PERFORMER “The Rolling Stones”
INDEX 00 12:56:18
INDEX 01 12:57:32
TRACK 05 AUDIO
TITLE “Start Me Up”
PERFORMER “The Rolling Stones”
INDEX 00 18:04:51
INDEX 01 18:08:57


Spread the Download

Leave a Reply

Your email address will not be published. Required fields are marked *

Enter the text from the image below
 

This site uses Akismet to reduce spam. Learn how your comment data is processed.