The Rolling Stones – Remastered (Limited Remastered Edition)




Artist: The Rolling Stones
Year: 2002
Genre: Rock
Notes: Discogs
Add. Notes: Limited Remastered Edition
Cover incl.: Yes
Encoder: FLAC
Bitrate: ~900 kBit/s (44.1 kHz/16 Bit/s)
Log & Cue incl.: Yes
Size: 498,46 MB
Password: “slam” (without ” “)


All Downloads/Hosters are compatible

Download 1
Turbobit.net
KatFile.com
Rapidgator.net
Download 2
Turbobit.net
KatFile.com
Rapidgator.net

Tracklist:

1. It's All Over Now 	
2. 2120 South Michigan Avenue 	
3. Get Off My Cloud 	
4. (I Can't Get No) Satisfaction 	
5. Under My Thumb 	
6. I Am Waiting 	
7. Ruby Tuesday 	
8. Miss Amanda Jones 	
9. Paint It Black 	
10. Dandelion 	
11. She's A Rainbow 	
12. I'm Free 	
13. Jiving Sister Fanny 	
14. Brown Sugar 	
15. You Got The Silver 	
16. Monkey Man 	
17. Jumping Jack Flash 	
18. Wild Horses 	
19. Factory Girl 	
20. Midnight Rambler(Live) 	
21. Honky Tonk Women

EAC-Log, CUE-Sheed & NFO:

Click to open spoiler
Exact Audio Copy V1.0 beta 3 from 29. August 2011

EAC extraction logfile from 27. June 2013, 15:25

The Rolling Stones / The Stones Remastered 21 X 5 Sampler (SACD-Hybrid)

Used drive : _NEC DVD+-RW ND-6500A Adapter: 1 ID: 0

Read mode : Secure
Utilize accurate stream : Yes
Defeat audio cache : Yes
Make use of C2 pointers : No

Read offset correction : 48
Overread into Lead-In and Lead-Out : No
Fill up missing offset samples with silence : Yes
Delete leading and trailing silent blocks : No
Null samples used in CRC calculations : Yes
Used interface : Native Win32 interface for Win NT & 2000

Used output format : User Defined Encoder
Selected bitrate : 768 kBit/s
Quality : High
Add ID3 tag : No
Command line compressor : C:\Program Files\Exact Audio Copy\FLAC\FLAC.EXE
Additional command line options : -V -8 -T “Date=%year%” -T “Genre=%genre%” %source%

TOC of the extracted CD

Track | Start | Length | Start sector | End sector
———————————————————
1 | 0:00.00 | 3:26.60 | 0 | 15509
2 | 3:26.60 | 3:38.37 | 15510 | 31896
3 | 7:05.22 | 2:55.70 | 31897 | 45091
4 | 10:01.17 | 3:43.13 | 45092 | 61829
5 | 13:44.30 | 3:41.65 | 61830 | 78469
6 | 17:26.20 | 3:11.47 | 78470 | 92841
7 | 20:37.67 | 3:17.15 | 92842 | 107631
8 | 23:55.07 | 2:48.53 | 107632 | 120284
9 | 26:43.60 | 3:23.05 | 120285 | 135514
10 | 30:06.65 | 3:32.32 | 135515 | 151446
11 | 33:39.22 | 4:12.20 | 151447 | 170366
12 | 37:51.42 | 2:24.50 | 170367 | 181216
13 | 40:16.17 | 3:24.00 | 181217 | 196516
14 | 43:40.17 | 3:49.40 | 196517 | 213731
15 | 47:29.57 | 2:50.35 | 213732 | 226516
16 | 50:20.17 | 4:13.15 | 226517 | 245506
17 | 54:33.32 | 3:42.20 | 245507 | 262176
18 | 58:15.52 | 5:42.38 | 262177 | 287864
19 | 63:58.15 | 2:10.65 | 287865 | 297679
20 | 66:09.05 | 9:15.30 | 297680 | 339334
21 | 75:24.35 | 3:00.10 | 339335 | 352844

Range status and errors

Selected range

Filename E:\RUTRA\2002 – Remastered (SACD-Hybrid)\The Rolling Stones – The Stones Remastered 21 X 5 Sampler (SACD-Hybrid).wav

Peak level 99.8 %
Extraction speed 4.3 X
Range quality 100.0 %
Test CRC 697F319A
Copy CRC 697F319A
Copy OK

No errors occurred

AccurateRip summary

Track 1 accurately ripped (confidence 3) [62770A44] (AR v1)
Track 2 accurately ripped (confidence 3) [5659E43C] (AR v1)
Track 3 accurately ripped (confidence 3) [C3BAF3E1] (AR v1)
Track 4 accurately ripped (confidence 3) [97112024] (AR v1)
Track 5 accurately ripped (confidence 3) [D5C18AB0] (AR v1)
Track 6 accurately ripped (confidence 3) [41863934] (AR v1)
Track 7 accurately ripped (confidence 3) [8806CF59] (AR v1)
Track 8 accurately ripped (confidence 3) [A2034C1E] (AR v1)
Track 9 accurately ripped (confidence 3) [822C9043] (AR v1)
Track 10 accurately ripped (confidence 3) [E5E706D9] (AR v1)
Track 11 accurately ripped (confidence 3) [2DA89786] (AR v1)
Track 12 accurately ripped (confidence 3) [80CA4A21] (AR v1)
Track 13 accurately ripped (confidence 3) [392A4F5E] (AR v1)
Track 14 accurately ripped (confidence 3) [57CE3DEA] (AR v1)
Track 15 accurately ripped (confidence 3) [B2F2F7E6] (AR v1)
Track 16 accurately ripped (confidence 3) [C3925466] (AR v1)
Track 17 accurately ripped (confidence 3) [7F400068] (AR v1)
Track 18 accurately ripped (confidence 3) [70AD0964] (AR v1)
Track 19 accurately ripped (confidence 3) [0F3F0262] (AR v1)
Track 20 accurately ripped (confidence 3) [72B359A1] (AR v1)
Track 21 accurately ripped (confidence 2) [56F72162] (AR v1)

All tracks accurately ripped

End of status report

==== Log checksum D2096CFEE20D8F029A40CF4B13735970A723B6301B3CE2408C192E3DD4DDBFAD ====

REM DATE 2002
REM DISCID 1C126015
REM COMMENT “ExactAudioCopy v1.0b3”
PERFORMER “The Rolling Stones”
TITLE “The Stones Remastered 21 X 5 Sampler (SACD-Hybrid)”
FILE “The Rolling Stones – The Stones Remastered 21 X 5 Sampler (SACD-Hybrid).flac” WAVE
TRACK 01 AUDIO
TITLE “It’s All Over Now”
PERFORMER “The Rolling Stones”
ISRC USA176410180
INDEX 01 00:00:00
TRACK 02 AUDIO
TITLE “2120 South Michigan Avenue”
PERFORMER “The Rolling Stones”
ISRC USA176410190
INDEX 00 03:26:36
INDEX 01 03:26:60
TRACK 03 AUDIO
TITLE “Get Off Of My Cloud”
PERFORMER “The Rolling Stones”
ISRC USA176510270
INDEX 00 07:05:08
INDEX 01 07:05:22
TRACK 04 AUDIO
TITLE “(I Can’t Get No) Satisfaction”
PERFORMER “The Rolling Stones”
ISRC USA176510160
INDEX 00 10:00:68
INDEX 01 10:01:17
TRACK 05 AUDIO
TITLE “Under My Thumb”
PERFORMER “The Rolling Stones”
ISRC USA176610050
INDEX 00 13:43:72
INDEX 01 13:44:30
TRACK 06 AUDIO
TITLE “I Am Waiting”
PERFORMER “The Rolling Stones”
ISRC USA176610110
INDEX 00 17:25:67
INDEX 01 17:26:20
TRACK 07 AUDIO
TITLE “Ruby Tuesday”
PERFORMER “The Rolling Stones”
ISRC USA176710030
INDEX 00 20:37:27
INDEX 01 20:37:67
TRACK 08 AUDIO
TITLE “Miss Amanda Jones”
PERFORMER “The Rolling Stones”
ISRC USA176710110
INDEX 00 23:54:47
INDEX 01 23:55:07
TRACK 09 AUDIO
TITLE “Paint It Black”
PERFORMER “The Rolling Stones”
ISRC USA176610020
INDEX 00 26:43:48
INDEX 01 26:43:60
TRACK 10 AUDIO
TITLE “Dandelion”
PERFORMER “The Rolling Stones”
ISRC USA176710280
INDEX 00 30:05:72
INDEX 01 30:06:65
TRACK 11 AUDIO
TITLE “She’s A Rainbow”
PERFORMER “The Rolling Stones”
ISRC USA176710230
INDEX 00 33:39:12
INDEX 01 33:39:22
TRACK 12 AUDIO
TITLE “I’m Free”
PERFORMER “The Rolling Stones”
ISRC USA176510280
INDEX 00 37:50:22
INDEX 01 37:51:42
TRACK 13 AUDIO
TITLE “Jiving Sister Fanny”
PERFORMER “The Rolling Stones”
ISRC USA177510040
INDEX 00 40:15:12
INDEX 01 40:16:17
TRACK 14 AUDIO
TITLE “Brown Sugar”
PERFORMER “The Rolling Stones”
ISRC USA177110010
INDEX 00 43:39:66
INDEX 01 43:40:17
TRACK 15 AUDIO
TITLE “You Got The Silver”
PERFORMER “The Rolling Stones”
ISRC USA176910080
INDEX 01 47:29:57
TRACK 16 AUDIO
TITLE “Monkey Man”
PERFORMER “The Rolling Stones”
ISRC USA176910090
INDEX 01 50:20:17
TRACK 17 AUDIO
TITLE “Jumping Jack Flash”
PERFORMER “The Rolling Stones”
ISRC USA176810110
INDEX 00 54:33:22
INDEX 01 54:33:32
TRACK 18 AUDIO
TITLE “Wild Horses”
PERFORMER “The Rolling Stones”
ISRC USA177110020
INDEX 00 58:15:05
INDEX 01 58:15:52
TRACK 19 AUDIO
TITLE “Factory Girl”
PERFORMER “The Rolling Stones”
ISRC USA176810090
INDEX 00 63:58:10
INDEX 01 63:58:15
TRACK 20 AUDIO
TITLE “Midnight Rambler (Live)”
PERFORMER “The Rolling Stones”
ISRC USA176910090
INDEX 00 66:06:42
INDEX 01 66:09:05
TRACK 21 AUDIO
TITLE “Honky Tonk Women”
PERFORMER “The Rolling Stones”
ISRC USA176910010
INDEX 00 75:23:55
INDEX 01 75:24:35


0

Publication author

offline 13 hours

Chaos

3
Comments: 3Publics: 3189Registration: 02-02-2019
Spread the Download

Leave a Reply

Your email address will not be published. Required fields are marked *

Enter the text from the image below
 

This site uses Akismet to reduce spam. Learn how your comment data is processed.