The Rolling Stones – Rarities




Artist: The Rolling Stones
Year: 2005
Genre: Rock
Notes: Discogs
Add. Notes:
Cover incl.: Yes
Encoder: FLAC
Bitrate: ~900 kBit/s (44.1 kHz/16 Bit/s)
Log & Cue incl.: Yes
Size: 563 MB
Password: “slam” (without ” “)


All Downloads/Hosters are compatible

Download 1
KatFile.com
Turbobit.net
FileFactory.com
Rapidgator.net
Download 2
KatFile.com
Turbobit.net
FileFactory.com
Rapidgator.net

Tracklist:

1 - Fancy Man Blues - 4:48
2 - Tumbling Dice (Live) - 4:02
3 - Wild Horses (Live Stripped 
Version) - 5:10
4 - Beast Of Burden (Live) - 5:06
5 - Anyway You Look At It - 4:20
6 - If I Was A Dancer (Dance Pt. 2) - 
5:51
7 - Miss You (Dance Version) - 7:33
8 - Wish I'd Never Met You - 4:39
9 - I Just Wanna Make Love To You 
(Live) - 3:56
10 - Mixed Emotions (12" Version) - 
6:13
11 - Through The Lonely Nights - 
4:13
12 - Live With Me (Live) - 3:48
13 - Let It Rock - 2:47
14 - Harlem Shuffle (NY Mix) - 5:49
15 - Mannish Boy (Live) - 4:29
16 - Thru And Thru (Live) - 6:39

EAC-Log, CUE-Sheed & NFO:

Click to open spoiler
Exact Audio Copy V1.0 beta 3 from 29. August 2011

EAC extraction logfile from 11. March 2013, 11:24

The Rolling Stones / Rarities 1971-2003 [CDVX3015]

Used drive : HL-DT-STDVD+-RW GH50N Adapter: 0 ID: 1

Read mode : Secure
Utilize accurate stream : Yes
Defeat audio cache : Yes
Make use of C2 pointers : No

Read offset correction : 667
Overread into Lead-In and Lead-Out : No
Fill up missing offset samples with silence : Yes
Delete leading and trailing silent blocks : No
Null samples used in CRC calculations : Yes
Used interface : Native Win32 interface for Win NT & 2000

Used output format : User Defined Encoder
Selected bitrate : 768 kBit/s
Quality : High
Add ID3 tag : No
Command line compressor : C:\Program Files (x86)\Exact Audio Copy\FLAC\FLAC.EXE
Additional command line options : -V -8 -T “Date=%year%” -T “Genre=%genre%” %source%

TOC of the extracted CD

Track | Start | Length | Start sector | End sector
———————————————————
1 | 0:00.00 | 4:48.60 | 0 | 21659
2 | 4:48.60 | 4:02.45 | 21660 | 39854
3 | 8:51.30 | 5:10.54 | 39855 | 63158
4 | 14:02.09 | 5:06.18 | 63159 | 86126
5 | 19:08.27 | 4:20.48 | 86127 | 105674
6 | 23:29.00 | 5:51.66 | 105675 | 132065
7 | 29:20.66 | 7:33.26 | 132066 | 166066
8 | 36:54.17 | 4:39.69 | 166067 | 187060
9 | 41:34.11 | 3:56.18 | 187061 | 204778
10 | 45:30.29 | 6:13.40 | 204779 | 232793
11 | 51:43.69 | 4:13.28 | 232794 | 251796
12 | 55:57.22 | 3:48.08 | 251797 | 268904
13 | 59:45.30 | 2:47.57 | 268905 | 281486
14 | 62:33.12 | 5:49.24 | 281487 | 307685
15 | 68:22.36 | 4:29.25 | 307686 | 327885
16 | 72:51.61 | 6:39.11 | 327886 | 357821

Range status and errors

Selected range

Filename C:\222\Virgin\2005 – Rarities 1971-2003 [CDVX3015]\The Rolling Stones – Rarities 1971-2003 [CDVX3015].wav

Peak level 100.0 %
Extraction speed 3.4 X
Range quality 100.0 %
Test CRC 821A0491
Copy CRC 821A0491
Copy OK

No errors occurred

AccurateRip summary

Track 1 accurately ripped (confidence 10) [BC62BB0A] (AR v2)
Track 2 accurately ripped (confidence 10) [12ADE9BC] (AR v2)
Track 3 accurately ripped (confidence 11) [53217C50] (AR v2)
Track 4 accurately ripped (confidence 11) [37572078] (AR v2)
Track 5 accurately ripped (confidence 11) [241DA7FF] (AR v2)
Track 6 accurately ripped (confidence 11) [2EED1E54] (AR v2)
Track 7 accurately ripped (confidence 11) [B7AE66D3] (AR v2)
Track 8 accurately ripped (confidence 11) [838F207E] (AR v2)
Track 9 accurately ripped (confidence 11) [53199B58] (AR v2)
Track 10 accurately ripped (confidence 11) [E490BC72] (AR v2)
Track 11 accurately ripped (confidence 11) [9E89ADC5] (AR v2)
Track 12 accurately ripped (confidence 11) [CFC1AAD8] (AR v2)
Track 13 accurately ripped (confidence 11) [739D139F] (AR v2)
Track 14 accurately ripped (confidence 11) [C066545F] (AR v2)
Track 15 accurately ripped (confidence 11) [50C44A81] (AR v2)
Track 16 accurately ripped (confidence 11) [1A0D3710] (AR v2)

All tracks accurately ripped

End of status report

==== Log checksum DC98F6CE83E3B1085EF0E2285A31E8B316661E4A7DC07115FC63A8A562265F4D ====

REM GENRE Rock
REM DATE 2005
REM DISCID D612A210
REM COMMENT “ExactAudioCopy v1.0b3”
CATALOG 0094634709224
PERFORMER “The Rolling Stones”
TITLE “Rarities 1971-2003 [CDVX3015]”
FILE “The Rolling Stones – Rarities 1971-2003 [CDVX3015].flac” WAVE
TRACK 01 AUDIO
TITLE “Fancy Man Blues”
PERFORMER “The Rolling Stones”
ISRC GBCJN8900015
INDEX 01 00:00:00
TRACK 02 AUDIO
TITLE “Tumbling Dice [Rehearsals and Live]”
PERFORMER “The Rolling Stones”
ISRC GBCJN7700007
INDEX 00 04:48:00
INDEX 01 04:48:60
TRACK 03 AUDIO
TITLE “Wild Horses [Live, Stripped Version]”
PERFORMER “The Rolling Stones”
ISRC GBCJN9500007
INDEX 00 08:50:52
INDEX 01 08:51:30
TRACK 04 AUDIO
TITLE “Beast Of Burden [Live]”
PERFORMER “The Rolling Stones”
ISRC GBCJN8200013
INDEX 00 14:01:49
INDEX 01 14:02:09
TRACK 05 AUDIO
TITLE “Anyway You Look At It”
PERFORMER “The Rolling Stones”
ISRC GBCJN9800023
INDEX 00 19:06:34
INDEX 01 19:08:27
TRACK 06 AUDIO
TITLE “If I Was A Dancer (Dance Pt. 2)”
PERFORMER “The Rolling Stones”
ISRC GBCJN0500008
INDEX 00 23:27:71
INDEX 01 23:29:00
TRACK 07 AUDIO
TITLE “Miss You [Dance Version, Edit]”
PERFORMER “The Rolling Stones”
ISRC GBCJN0500032
INDEX 00 29:19:30
INDEX 01 29:20:66
TRACK 08 AUDIO
TITLE “Wish I’d Never Met You”
PERFORMER “The Rolling Stones”
ISRC GBCJN8900013
INDEX 00 36:52:37
INDEX 01 36:54:17
TRACK 09 AUDIO
TITLE “I Just Wanna Make Love To You [Live]”
PERFORMER “The Rolling Stones”
ISRC GBCJN9100018
INDEX 00 41:32:62
INDEX 01 41:34:11
TRACK 10 AUDIO
TITLE “Mixed Emotions [12′ Version]”
PERFORMER “The Rolling Stones”
ISRC GBCJN8900014
INDEX 00 45:29:38
INDEX 01 45:30:29
TRACK 11 AUDIO
TITLE “Through The Lonely Nights”
PERFORMER “The Rolling Stones”
ISRC GBCJN0500027
INDEX 00 51:42:12
INDEX 01 51:43:69
TRACK 12 AUDIO
TITLE “Live With Me [Live]”
PERFORMER “The Rolling Stones”
ISRC GBCJN9800003
INDEX 00 55:55:65
INDEX 01 55:57:22
TRACK 13 AUDIO
TITLE “Let It Rock [Live]”
PERFORMER “The Rolling Stones”
ISRC GBCJN0500020
INDEX 00 59:44:40
INDEX 01 59:45:30
TRACK 14 AUDIO
TITLE “Harlem Shuffle [NY Mix, Edit]”
PERFORMER “The Rolling Stones”
ISRC GBCJN8600011
INDEX 00 62:31:65
INDEX 01 62:33:12
TRACK 15 AUDIO
TITLE “Mannish Boy [Live]”
PERFORMER “The Rolling Stones”
ISRC GBCJN0500006
INDEX 00 68:21:19
INDEX 01 68:22:36
TRACK 16 AUDIO
TITLE “Thru And Thru [Live]”
PERFORMER “The Rolling Stones”
ISRC GBCJN0500070
INDEX 00 72:50:35
INDEX 01 72:51:61


Leave a Reply

Your email address will not be published. Required fields are marked *

This site uses Akismet to reduce spam. Learn how your comment data is processed.