The Rolling Stones – Out Of Our Heads (Remastered)




No Cover available

Artist: The Rolling Stones
Year: 1965/2002
Genre: Rock
Notes: Discogs
Add. Notes: Remastered
Watch Songs on: YouTube
Cover incl.: Yes
Encoder: FLAC
Bitrate: ~700 kBit/s (44.1 kHz/16 Bit/s)
Log & Cue incl.: Yes/Yes
Size: 167 MB
Password: “slam” (without ” “)


All Downloads/Hosters are compatible

Download 1
KatFile.com
Turbobit.net
Rapidgator.net
FileFactory.com
Download 2
KatFile.com
Turbobit.net
Rapidgator.net
FileFactory.com

Tracklist:

1 Mercy, Mercy 2:47
2 Hitch Hike 2:26
3 The Last Time 3:42
4 That's How Strong My Love Is 2:25
5 Good Times 1:59
6 I'm All Right 2:25
7 (I Can't Get No) Satisfaction 3:43
8 Cry To Me 3:09
9 The Under Assistant West Coast Promotion Man 3:07
10 Play With Fire 2:15
11 The Spider And The Fly 3:39
12 One More Try 1:58

EAC-Log, CUE-Sheed & NFO:

Click to open spoiler
Exact Audio Copy V1.0 beta 3 from 29. August 2011

EAC extraction logfile from 16. March 2013, 17:47

The Rolling Stones / Out Of Our Heads (US) [ABKCO 8822902]

Used drive : PLEXTOR DVDR PX-891SA Adapter: 1 ID: 0

Read mode : Secure
Utilize accurate stream : Yes
Defeat audio cache : Yes
Make use of C2 pointers : No

Read offset correction : 6
Overread into Lead-In and Lead-Out : No
Fill up missing offset samples with silence : Yes
Delete leading and trailing silent blocks : No
Null samples used in CRC calculations : Yes
Used interface : Native Win32 interface for Win NT & 2000

Used output format : User Defined Encoder
Selected bitrate : 1024 kBit/s
Quality : High
Add ID3 tag : No
Command line compressor : C:\Program Files\Exact Audio Copy\Flac\flac.exe
Additional command line options : -V -8 -T “Genre=%genre%” -T “Artist=%artist%” -T “Title=%title%” -T “Album=%albumtitle%” -T “Date=%year%” -T “Tracknumber=%tracknr%” -T “Comment=%comment%” %source%

TOC of the extracted CD

Track | Start | Length | Start sector | End sector
———————————————————
1 | 0:00.00 | 2:47.05 | 0 | 12529
2 | 2:47.05 | 2:26.10 | 12530 | 23489
3 | 5:13.15 | 3:42.30 | 23490 | 40169
4 | 8:55.45 | 2:25.47 | 40170 | 51091
5 | 11:21.17 | 1:59.00 | 51092 | 60016
6 | 13:20.17 | 2:25.10 | 60017 | 70901
7 | 15:45.27 | 3:43.33 | 70902 | 87659
8 | 19:28.60 | 3:09.37 | 87660 | 101871
9 | 22:38.22 | 3:07.35 | 101872 | 115931
10 | 25:45.57 | 2:15.05 | 115932 | 126061
11 | 28:00.62 | 3:39.53 | 126062 | 142539
12 | 31:40.40 | 1:58.02 | 142540 | 151391

Range status and errors

Selected range

Filename H:\dafnaplus\1965 Out Of Our Heads US [ABKCO 8822902]\The Rolling Stones – Out Of Our Heads (US) [ABKCO 8822902].wav

Peak level 99.8 %
Extraction speed 7.1 X
Range quality 99.9 %
Test CRC 9E1D9CCF
Copy CRC 9E1D9CCF
Copy OK

No errors occurred

AccurateRip summary

Track 1 accurately ripped (confidence 2) [000A9862] (AR v2)
Track 2 accurately ripped (confidence 2) [A3FC94F5] (AR v2)
Track 3 accurately ripped (confidence 2) [8338E05D] (AR v2)
Track 4 accurately ripped (confidence 2) [B94101AB] (AR v2)
Track 5 accurately ripped (confidence 2) [AFFD85E4] (AR v2)
Track 6 accurately ripped (confidence 2) [58422905] (AR v2)
Track 7 accurately ripped (confidence 2) [57B3A098] (AR v2)
Track 8 accurately ripped (confidence 2) [5F36EB17] (AR v2)
Track 9 accurately ripped (confidence 2) [718E3180] (AR v2)
Track 10 accurately ripped (confidence 2) [B4FC4548] (AR v2)
Track 11 accurately ripped (confidence 2) [01DD8FAF] (AR v2)
Track 12 accurately ripped (confidence 2) [C8B66448] (AR v2)

All tracks accurately ripped

End of status report

==== Log checksum FA2DA87E81C8C4837A9E7A5D8C3E8238181E943C70FCB4278E57495991E950F2 ====

REM GENRE Rock
REM DATE 2002
REM DISCID 9A07E20C
REM COMMENT “ExactAudioCopy v1.0b3”
PERFORMER “The Rolling Stones”
TITLE “Out Of Our Heads (US) [ABKCO 8822902]”
FILE “The Rolling Stones – Out Of Our Heads (US) [ABKCO 8822902].flac” WAVE
TRACK 01 AUDIO
TITLE “Mercy Mercy”
PERFORMER “The Rolling Stones”
ISRC USA176510100
INDEX 01 00:00:00
TRACK 02 AUDIO
TITLE “Hitch Hike”
PERFORMER “The Rolling Stones”
ISRC USA176510110
INDEX 00 02:44:56
INDEX 01 02:47:05
TRACK 03 AUDIO
TITLE “The Last Time”
PERFORMER “The Rolling Stones”
ISRC USA176510120
INDEX 00 05:12:55
INDEX 01 05:13:15
TRACK 04 AUDIO
TITLE “That’s How Strong My Love Is”
PERFORMER “The Rolling Stones”
ISRC USA176510130
INDEX 00 08:54:55
INDEX 01 08:55:45
TRACK 05 AUDIO
TITLE “Good Times”
PERFORMER “The Rolling Stones”
ISRC USA176510140
INDEX 00 11:20:65
INDEX 01 11:21:17
TRACK 06 AUDIO
TITLE “I’m All Right”
PERFORMER “The Rolling Stones”
ISRC USA176510150
INDEX 00 13:19:42
INDEX 01 13:20:17
TRACK 07 AUDIO
TITLE “(I Can’t Get No) Satisfaction”
PERFORMER “The Rolling Stones”
ISRC USA176510160
INDEX 00 15:43:62
INDEX 01 15:45:27
TRACK 08 AUDIO
TITLE “Cry To Me”
PERFORMER “The Rolling Stones”
ISRC USA176510170
INDEX 00 19:28:15
INDEX 01 19:28:60
TRACK 09 AUDIO
TITLE “The Under Assistant West Coast Promotion Man”
PERFORMER “The Rolling Stones”
ISRC USA176510180
INDEX 00 22:37:65
INDEX 01 22:38:22
TRACK 10 AUDIO
TITLE “Play With Fire”
PERFORMER “The Rolling Stones”
ISRC USA176510190
INDEX 00 25:45:50
INDEX 01 25:45:57
TRACK 11 AUDIO
TITLE “The Spider And The Fly”
PERFORMER “The Rolling Stones”
ISRC USA176510200
INDEX 00 27:59:10
INDEX 01 28:00:62
TRACK 12 AUDIO
TITLE “One More Try”
PERFORMER “The Rolling Stones”
ISRC USA176510210
INDEX 00 31:38:67
INDEX 01 31:40:40


Leave a Reply

Your email address will not be published. Required fields are marked *

Enter the text from the image below
 

This site uses Akismet to reduce spam. Learn how your comment data is processed.