The Rolling Stones – Out Of Our Heads (Japanese Edition) (1965/1989)




[Total: 0    Average: 0/5]

Artist: The Rolling Stones
Year: 1965/1989
Genre: Rock
Notes: Discogs
Add. Notes: Japanese Edition
Cover incl.: Yes
Encoder: FLAC
Bitrate: ~700 kBit/s (44.1 kHz/16 Bit/s)
Log & Cue incl.: Yes
Size: 173,8 MB
Password: “slam” (without ” “)


All Downloads/Hosters are compatible

Download 1
Share-online.biz
KatFile.com
Rapidgator.net
Download 2
Share-online.biz
KatFile.com
Rapidgator.net

Tracklist:

1. Mercy Mercy (2:48)
2. Hitch Hike (2:27)
3. The Last Time (3:43)
4. That's How Strong My Love Is (2:26)
5. Good Times (2:01)
6. I'm All Right (2:24)
7. Satisfaction (3:46)
8. Cry To Me (3:10)
9. The Under Assistant West Coast Promotion Man (3:10)
10. Play With Fire (2:17)
11. The Spider And The Fly (3:41)
12. One More Try (1:57)

EAC-Log, CUE-Sheed & NFO:

Click to open spoiler
Exact Audio Copy V1.0 beta 3 from 29. August 2011

EAC extraction logfile from 13. January 2015, 15:22

The Rolling Stones / Out Of Our Heads [P25L 25035]

Used drive : HL-DT-STDVD+-RW GH50N Adapter: 0 ID: 1

Read mode : Secure
Utilize accurate stream : Yes
Defeat audio cache : Yes
Make use of C2 pointers : No

Read offset correction : 667
Overread into Lead-In and Lead-Out : No
Fill up missing offset samples with silence : Yes
Delete leading and trailing silent blocks : No
Null samples used in CRC calculations : Yes
Used interface : Native Win32 interface for Win NT & 2000

Used output format : User Defined Encoder
Selected bitrate : 768 kBit/s
Quality : High
Add ID3 tag : No
Command line compressor : C:\Program Files (x86)\Exact Audio Copy\FLAC\FLAC.EXE
Additional command line options : -V -8 -T “Date=%year%” -T “Genre=%genre%” %source%

TOC of the extracted CD

Track | Start | Length | Start sector | End sector
———————————————————
1 | 0:00.37 | 2:48.35 | 37 | 12671
2 | 2:48.72 | 2:27.05 | 12672 | 23701
3 | 5:16.02 | 3:43.12 | 23702 | 40438
4 | 8:59.14 | 2:26.48 | 40439 | 51436
5 | 11:25.62 | 2:01.17 | 51437 | 60528
6 | 13:27.04 | 2:24.25 | 60529 | 71353
7 | 15:51.29 | 3:46.25 | 71354 | 88328
8 | 19:37.54 | 3:10.65 | 88329 | 102643
9 | 22:48.44 | 3:10.25 | 102644 | 116918
10 | 25:58.69 | 2:17.43 | 116919 | 127236
11 | 28:16.37 | 3:41.12 | 127237 | 143823
12 | 31:57.49 | 1:57.45 | 143824 | 152643

Range status and errors

Selected range

Filename C:\222\London\Japan\1965 – Out Of Our Heads\The Rolling Stones – Out Of Our Heads [P25L 25035].wav

Peak level 94.0 %
Extraction speed 2.8 X
Range quality 100.0 %
Test CRC 6E5E0D90
Copy CRC 6E5E0D90
Copy OK

No errors occurred

AccurateRip summary

Track 1 not present in database
Track 2 not present in database
Track 3 not present in database
Track 4 not present in database
Track 5 not present in database
Track 6 not present in database
Track 7 not present in database
Track 8 not present in database
Track 9 not present in database
Track 10 not present in database
Track 11 not present in database
Track 12 not present in database

None of the tracks are present in the AccurateRip database

End of status report

==== Log checksum 87FD9CE3052906FC2922BC1DA32FBBF6D5AEF9F63777B9D6C6DC3BF05C93E1A8 ====

REM GENRE Rock
REM DATE 1965
REM DISCID AC07F30C
REM COMMENT “ExactAudioCopy v1.0b3”
PERFORMER “The Rolling Stones”
TITLE “Out Of Our Heads [P25L 25035]”
FILE “The Rolling Stones – Out Of Our Heads [P25L 25035].flac” WAVE
TRACK 01 AUDIO
TITLE “Mercy Mercy”
PERFORMER “The Rolling Stones”
INDEX 00 00:00:00
INDEX 01 00:00:37
TRACK 02 AUDIO
TITLE “Hitch Hike”
PERFORMER “The Rolling Stones”
INDEX 00 02:46:45
INDEX 01 02:48:72
TRACK 03 AUDIO
TITLE “The Last Time”
PERFORMER “The Rolling Stones”
INDEX 00 05:13:70
INDEX 01 05:16:02
TRACK 04 AUDIO
TITLE “That’s How Strong My Love Is”
PERFORMER “The Rolling Stones”
INDEX 00 08:56:58
INDEX 01 08:59:14
TRACK 05 AUDIO
TITLE “Good Times”
PERFORMER “The Rolling Stones”
INDEX 00 11:23:38
INDEX 01 11:25:62
TRACK 06 AUDIO
TITLE “I’m All Right”
PERFORMER “The Rolling Stones”
INDEX 00 13:24:50
INDEX 01 13:27:04
TRACK 07 AUDIO
TITLE “Satisfaction”
PERFORMER “The Rolling Stones”
INDEX 00 15:48:58
INDEX 01 15:51:29
TRACK 08 AUDIO
TITLE “Cry To Me”
PERFORMER “The Rolling Stones”
INDEX 00 19:34:10
INDEX 01 19:37:54
TRACK 09 AUDIO
TITLE “The Under Assistant West Coast Promotion Man”
PERFORMER “The Rolling Stones”
INDEX 00 22:45:35
INDEX 01 22:48:44
TRACK 10 AUDIO
TITLE “Play With Fire”
PERFORMER “The Rolling Stones”
INDEX 00 25:56:05
INDEX 01 25:58:69
TRACK 11 AUDIO
TITLE “The Spider And The Fly”
PERFORMER “The Rolling Stones”
INDEX 00 28:13:13
INDEX 01 28:16:37
TRACK 12 AUDIO
TITLE “One More Try”
PERFORMER “The Rolling Stones”
INDEX 00 31:54:30
INDEX 01 31:57:49


Spread the Download

Leave a Reply

Your email address will not be published. Required fields are marked *

Enter the text from the image below
 

This site uses Akismet to reduce spam. Learn how your comment data is processed.