The Rolling Stones – Muddy Waters & The Rolling Stones ‎– Checkerboard Lounge Live Chicago 1981




[Total: 0    Average: 0/5]

Artist: The Rolling Stones
Year: 1981/2012
Genre: Rock
Notes: Discogs
Add. Notes:
Cover incl.: Yes
Encoder: FLAC
Bitrate: ~1000 kBit/s (44.1 kHz/16 Bit/s)
Log & Cue incl.: Yes
Size: 558,13 MB
Password: “slam” (without ” “)


All Downloads/Hosters are compatible

Download 1
Share-online.biz
KatFile.com
Rapidgator.net
ddl.to
Download 2
Share-online.biz
KatFile.com
Rapidgator.net
ddl.to

Tracklist:

1.  Introduction
2.  You Don't Have To Go
3.  Baby Please Don't Go
4.  Hoochie Coochie Man
5.  Long Distance Call
6.  Mannish Boy
7.  Got My Mojo Workin'
8.  Next Time You See Her
9.  One Eyed Woman
10. Clouds In My Heart
11. Champagne And Reefer 

EAC-Log, CUE-Sheed & NFO:

Click to open spoiler
Exact Audio Copy V1.0 beta 3 from 29. August 2011

EAC extraction logfile from 30. June 2013, 10:00

Muddy Waters & The Rolling Stones / Live at the Checkerboard Lounge Chicago 1981

Used drive : SONY DVD+-RW DW-D56A Adapter: 1 ID: 0

Read mode : Secure
Utilize accurate stream : Yes
Defeat audio cache : Yes
Make use of C2 pointers : No

Read offset correction : 12
Overread into Lead-In and Lead-Out : No
Fill up missing offset samples with silence : Yes
Delete leading and trailing silent blocks : No
Null samples used in CRC calculations : Yes
Used interface : Native Win32 interface for Win NT & 2000

Used output format : User Defined Encoder
Selected bitrate : 768 kBit/s
Quality : High
Add ID3 tag : No
Command line compressor : C:\Program Files\Exact Audio Copy\FLAC\FLAC.EXE
Additional command line options : -V -8 -T “Date=%year%” -T “Genre=%genre%” %source%

TOC of the extracted CD

Track | Start | Length | Start sector | End sector
———————————————————
1 | 0:00.00 | 1:44.67 | 0 | 7866
2 | 1:44.67 | 5:43.57 | 7867 | 33648
3 | 7:28.49 | 11:00.70 | 33649 | 83218
4 | 18:29.44 | 4:18.72 | 83219 | 102640
5 | 22:48.41 | 4:49.43 | 102641 | 124358
6 | 27:38.09 | 10:25.36 | 124359 | 171269
7 | 38:03.45 | 3:18.03 | 171270 | 186122
8 | 41:21.48 | 11:00.24 | 186123 | 235646
9 | 52:21.72 | 9:44.20 | 235647 | 279466
10 | 62:06.17 | 6:22.15 | 279467 | 308131
11 | 68:28.32 | 6:58.68 | 308132 | 339549

Range status and errors

Selected range

Filename E:\RUTRA\2012 – CBL\Muddy Waters & The Rolling Stones – Live at the Checkerboard Lounge Chicago 1981.wav

Peak level 100.0 %
Extraction speed 5.0 X
Range quality 100.0 %
Test CRC 4F10D973
Copy CRC 4F10D973
Copy OK

No errors occurred

AccurateRip summary

Track 1 accurately ripped (confidence 3) [B7B27774] (AR v2)
Track 2 accurately ripped (confidence 2) [AB528BB3] (AR v2)
Track 3 accurately ripped (confidence 3) [A0927D56] (AR v2)
Track 4 accurately ripped (confidence 2) [07AF0962] (AR v2)
Track 5 accurately ripped (confidence 3) [0C05A960] (AR v2)
Track 6 accurately ripped (confidence 3) [B603EFA2] (AR v2)
Track 7 accurately ripped (confidence 3) [ED33045D] (AR v2)
Track 8 accurately ripped (confidence 3) [09BAF7D4] (AR v2)
Track 9 accurately ripped (confidence 3) [07CCD864] (AR v2)
Track 10 accurately ripped (confidence 3) [EB5890AD] (AR v2)
Track 11 accurately ripped (confidence 3) [F57297BC] (AR v2)

All tracks accurately ripped

End of status report

==== Log checksum 15C9BEA0813766A1AC8BC778151BF7B2F1950756974089AB541277964D924B5D ====

REM GENRE Blues
REM DATE 1981
REM DISCID 7511AF0B
REM COMMENT “ExactAudioCopy v1.0b3”
PERFORMER “Muddy Waters & The Rolling Stones”
TITLE “Live at the Checkerboard Lounge Chicago 1981”
FILE “Muddy Waters & The Rolling Stones – Live at the Checkerboard Lounge Chicago 1981.flac” WAVE
TRACK 01 AUDIO
TITLE “Introduction”
PERFORMER “Muddy Waters & The Rolling Stones”
FLAGS DCP
INDEX 01 00:00:00
TRACK 02 AUDIO
TITLE “You Don’t Have To Go”
PERFORMER “Muddy Waters & The Rolling Stones”
FLAGS DCP
INDEX 01 01:44:67
TRACK 03 AUDIO
TITLE “Baby Please Don’t Go”
PERFORMER “Muddy Waters & The Rolling Stones”
FLAGS DCP
INDEX 01 07:28:49
TRACK 04 AUDIO
TITLE “Hoochie Coochie Man”
PERFORMER “Muddy Waters & The Rolling Stones”
FLAGS DCP
INDEX 01 18:29:44
TRACK 05 AUDIO
TITLE “Long Distance Call”
PERFORMER “Muddy Waters & The Rolling Stones”
FLAGS DCP
INDEX 01 22:48:41
TRACK 06 AUDIO
TITLE “Mannish Boy”
PERFORMER “Muddy Waters & The Rolling Stones”
FLAGS DCP
INDEX 01 27:38:09
TRACK 07 AUDIO
TITLE “Got My Mojo Workin'”
PERFORMER “Muddy Waters & The Rolling Stones”
FLAGS DCP
INDEX 01 38:03:45
TRACK 08 AUDIO
TITLE “Next Time You See Me”
PERFORMER “Muddy Waters & The Rolling Stones”
FLAGS DCP
INDEX 01 41:21:48
TRACK 09 AUDIO
TITLE “One Eyed Woman”
PERFORMER “Muddy Waters & The Rolling Stones”
FLAGS DCP
INDEX 01 52:21:72
TRACK 10 AUDIO
TITLE “Clouds In My Heart”
PERFORMER “Muddy Waters & The Rolling Stones”
FLAGS DCP
INDEX 01 62:06:17
TRACK 11 AUDIO
TITLE “Champagne And Reefer”
PERFORMER “Muddy Waters & The Rolling Stones”
FLAGS DCP
INDEX 01 68:28:32


Spread the Download

Leave a Reply

Your email address will not be published. Required fields are marked *

Enter the text from the image below
 

This site uses Akismet to reduce spam. Learn how your comment data is processed.