The Rolling Stones – More Hot Rocks (Big Hits & Fazed Cookies)




Artist: The Rolling Stones
Year: 2002
Genre: Rock
Notes: Discogs
Add. Notes:
Cover incl.: Yes
Encoder: FLAC
Bitrate: ~800 kBit/s (44.1 kHz/16 Bit/s)
Log & Cue incl.: Yes
Size: 526,04 MB
Password: “slam” (without ” “)


All Downloads/Hosters are compatible

Download 1
Turbobit.net
KatFile.com
Rapidgator.net
Download 2
Turbobit.net
KatFile.com
Rapidgator.net

Tracklist:

Disc 1:
1. Tell Me (3:47)
2. Not Fade Away (1:48)
3. The Last Time (3:42)
4. It's All Over Now (3:26)
5. Good Times, Bad Times (2:31)
6. I'm Free (2:23)
7. Out of Time (3:41)
8. Lady Jane (3:08)
9. Sittin' on a Fence (3:02)
10. Have You Seen Your Mother, Baby, Standing in the 
Shadow? (2:34)
11. Dandelion (3:32)
12. We Love You (4:21)

Disc 2:
1. She's a Rainbow (4:13)
2. 2000 Light Years from Home (4:47)
3. Child of the Moon (3:11)
4. No Expectations (3:57)
5. Let It Bleed (5:30)
6. What to Do (2:34)
7. Fortune Teller (2:19)
8. Poison Ivy [Version 1] (2:37)
9. Everybody Needs Somebody to Love (5:06)
10. Come On (1:50)
11. Money (2:35)
12. Bye Bye Johnnie (2:12)
13. Poison Ivy [Version 2] (2:09)
14. I've Been Loving You Too Long (2:57)
15. I Can't Be Satisfied (3:28)
16. Long Long While (3:01)

EAC-Log, CUE-Sheed & NFO:

Click to open spoiler
Exact Audio Copy V1.0 beta 3 from 29. August 2011

EAC extraction logfile from 3. August 2012, 15:15

The Rolling Stones / More Hot Rocks (Big Hits & Fazed Cookies) (CD 1) (96262)

Used drive : PIONEER DVD-RW DVR-219L Adapter: 2 ID: 0

Read mode : Secure
Utilize accurate stream : Yes
Defeat audio cache : Yes
Make use of C2 pointers : No

Read offset correction : 6
Overread into Lead-In and Lead-Out : No
Fill up missing offset samples with silence : Yes
Delete leading and trailing silent blocks : No
Null samples used in CRC calculations : Yes
Used interface : Native Win32 interface for Win NT & 2000

Used output format : User Defined Encoder
Selected bitrate : 1024 kBit/s
Quality : High
Add ID3 tag : No
Command line compressor : C:\Program Files\Exact Audio Copy\Flac\flac.exe
Additional command line options : -V -8 -T “Genre=%genre%” -T “Artist=%artist%” -T “Title=%title%” -T “Album=%albumtitle%” -T “Date=%year%” -T “Tracknumber=%tracknr%” -T “Comment=%comment%” %source%

TOC of the extracted CD

Track | Start | Length | Start sector | End sector
———————————————————
1 | 0:00.00 | 3:49.51 | 0 | 17225
2 | 3:49.51 | 1:49.17 | 17226 | 25417
3 | 5:38.68 | 3:42.46 | 25418 | 42113
4 | 9:21.39 | 3:27.14 | 42114 | 57652
5 | 12:48.53 | 2:31.48 | 57653 | 69025
6 | 15:20.26 | 2:25.06 | 69026 | 79906
7 | 17:45.32 | 3:43.23 | 79907 | 96654
8 | 21:28.55 | 3:09.27 | 96655 | 110856
9 | 24:38.07 | 3:04.04 | 110857 | 124660
10 | 27:42.11 | 2:36.32 | 124661 | 136392
11 | 30:18.43 | 3:33.38 | 136393 | 152405
12 | 33:52.06 | 4:21.64 | 152406 | 172044

Range status and errors

Selected range

Filename H:\dafnaplus\More Hot Rocks [ABKCO 96262]\Cd1\The Rolling Stones – More Hot Rocks (Big Hits & Fazed Cookies) (CD 1) (96262).wav

Peak level 100.0 %
Extraction speed 1.6 X
Range quality 100.0 %
Test CRC 4579D4FE
Copy CRC 4579D4FE
Copy OK

No errors occurred

AccurateRip summary

Track 1 accurately ripped (confidence 2) [57AA4D3E] (AR v1)
Track 2 accurately ripped (confidence 2) [FE696339] (AR v1)
Track 3 accurately ripped (confidence 2) [9FD8F45F] (AR v1)
Track 4 accurately ripped (confidence 2) [EB9C7194] (AR v1)
Track 5 accurately ripped (confidence 2) [1FA0901C] (AR v1)
Track 6 accurately ripped (confidence 2) [88500455] (AR v1)
Track 7 accurately ripped (confidence 2) [AEC1F1BF] (AR v1)
Track 8 accurately ripped (confidence 2) [8E552A25] (AR v1)
Track 9 accurately ripped (confidence 2) [0294A9A7] (AR v1)
Track 10 accurately ripped (confidence 2) [E7A7E95B] (AR v1)
Track 11 accurately ripped (confidence 2) [D3DC5433] (AR v1)
Track 12 accurately ripped (confidence 2) [3C80DD6D] (AR v1)

All tracks accurately ripped

End of status report

==== Log checksum EF3AD276FCB9FD0FEF5C96A26BA7101D4661A3921AAB8452D0B8CE2743133E1B ====

Exact Audio Copy V1.0 beta 3 from 29. August 2011

EAC extraction logfile from 3. August 2012, 16:22

The Rolling Stones / More Hot Rocks (Big Hits & Fazed Cookies) (CD 2) (96262)

Used drive : PIONEER DVD-RW DVR-219L Adapter: 2 ID: 0

Read mode : Secure
Utilize accurate stream : Yes
Defeat audio cache : Yes
Make use of C2 pointers : No

Read offset correction : 6
Overread into Lead-In and Lead-Out : No
Fill up missing offset samples with silence : Yes
Delete leading and trailing silent blocks : No
Null samples used in CRC calculations : Yes
Used interface : Native Win32 interface for Win NT & 2000

Used output format : User Defined Encoder
Selected bitrate : 1024 kBit/s
Quality : High
Add ID3 tag : No
Command line compressor : C:\Program Files\Exact Audio Copy\Flac\flac.exe
Additional command line options : -V -8 -T “Genre=%genre%” -T “Artist=%artist%” -T “Title=%title%” -T “Album=%albumtitle%” -T “Date=%year%” -T “Tracknumber=%tracknr%” -T “Comment=%comment%” %source%

TOC of the extracted CD

Track | Start | Length | Start sector | End sector
———————————————————
1 | 0:00.00 | 4:13.37 | 0 | 19011
2 | 4:13.37 | 4:47.16 | 19012 | 40552
3 | 9:00.53 | 3:11.27 | 40553 | 54904
4 | 12:12.05 | 3:57.18 | 54905 | 72697
5 | 16:09.23 | 5:30.18 | 72698 | 97465
6 | 21:39.41 | 2:34.23 | 97466 | 109038
7 | 24:13.64 | 2:19.36 | 109039 | 119499
8 | 26:33.25 | 2:36.57 | 119500 | 131256
9 | 29:10.07 | 5:05.57 | 131257 | 154188
10 | 34:15.64 | 1:50.05 | 154189 | 162443
11 | 36:05.69 | 2:34.42 | 162444 | 174035
12 | 38:40.36 | 2:12.14 | 174036 | 183949
13 | 40:52.50 | 2:09.02 | 183950 | 193626
14 | 43:01.52 | 2:57.01 | 193627 | 206902
15 | 45:58.53 | 3:28.28 | 206903 | 222530
16 | 49:27.06 | 3:01.25 | 222531 | 236130

Range status and errors

Selected range

Filename H:\dafnaplus\More Hot Rocks [ABKCO 96262]\Cd2\The Rolling Stones – More Hot Rocks (Big Hits & Fazed Cookies) (CD 2) (96262).wav

Peak level 94.2 %
Extraction speed 1.7 X
Range quality 100.0 %
Test CRC CB609FDB
Copy CRC CB609FDB
Copy OK

No errors occurred

AccurateRip summary

Track 1 accurately ripped (confidence 2) [05D7152B] (AR v1)
Track 2 accurately ripped (confidence 2) [858F8B88] (AR v1)
Track 3 accurately ripped (confidence 2) [73D40FED] (AR v1)
Track 4 accurately ripped (confidence 2) [F2C6CFD6] (AR v1)
Track 5 accurately ripped (confidence 2) [78331CD4] (AR v1)
Track 6 accurately ripped (confidence 2) [29CB96AC] (AR v1)
Track 7 accurately ripped (confidence 2) [FAE7D115] (AR v1)
Track 8 accurately ripped (confidence 2) [25B00DD5] (AR v1)
Track 9 accurately ripped (confidence 2) [90B50473] (AR v1)
Track 10 accurately ripped (confidence 2) [43E40950] (AR v1)
Track 11 accurately ripped (confidence 2) [4203EA2D] (AR v1)
Track 12 accurately ripped (confidence 2) [2690BC29] (AR v1)
Track 13 accurately ripped (confidence 2) [D186B379] (AR v1)
Track 14 accurately ripped (confidence 2) [22E93D16] (AR v1)
Track 15 accurately ripped (confidence 2) [DDB11F01] (AR v1)
Track 16 accurately ripped (confidence 2) [F080DB72] (AR v1)

All tracks accurately ripped

End of status report

==== Log checksum 41F9CFAE13906DAAF03BA9DD9B2B02A1AFF92AD43EAD3BE04E9345C7D362326C ====

REM GENRE Rock
REM DATE 2002
REM DISCID 8408F50C
REM COMMENT “ExactAudioCopy v1.0b3”
CATALOG 0018771962724
PERFORMER “The Rolling Stones”
TITLE “More Hot Rocks (Big Hits & Fazed Cookies) (CD 1) (96262)”
FILE “The Rolling Stones – More Hot Rocks (Big Hits & Fazed Cookies) (CD 1) (96262).flac” WAVE
TRACK 01 AUDIO
TITLE “Tell Me”
PERFORMER “The Rolling Stones”
ISRC USA176410090
INDEX 01 00:00:00
TRACK 02 AUDIO
TITLE “Not Fade Away”
PERFORMER “The Rolling Stones”
ISRC USA176410010
INDEX 00 03:47:41
INDEX 01 03:49:51
TRACK 03 AUDIO
TITLE “The Last Time”
PERFORMER “The Rolling Stones”
ISRC USA176510120
INDEX 00 05:37:19
INDEX 01 05:38:68
TRACK 04 AUDIO
TITLE “It’s All Over Now”
PERFORMER “The Rolling Stones”
ISRC USA176410180
INDEX 00 09:20:31
INDEX 01 09:21:39
TRACK 05 AUDIO
TITLE “Good Times, Bad Times”
PERFORMER “The Rolling Stones”
ISRC USA176410170
INDEX 00 12:47:72
INDEX 01 12:48:53
TRACK 06 AUDIO
TITLE “I’m Free”
PERFORMER “The Rolling Stones”
ISRC USA176510280
INDEX 00 15:19:21
INDEX 01 15:20:26
TRACK 07 AUDIO
TITLE “Out Of Time”
PERFORMER “The Rolling Stones”
ISRC USA176610260
INDEX 00 17:43:68
INDEX 01 17:45:32
TRACK 08 AUDIO
TITLE “Lady Jane”
PERFORMER “The Rolling Stones”
ISRC USA176610040
INDEX 00 21:26:71
INDEX 01 21:28:55
TRACK 09 AUDIO
TITLE “Sittin’ On A Fence”
PERFORMER “The Rolling Stones”
ISRC USA176710170
INDEX 00 24:36:22
INDEX 01 24:38:07
TRACK 10 AUDIO
TITLE “Have You Seen Your Mother Baby, Standing In The Shadow?”
PERFORMER “The Rolling Stones”
ISRC USA176610250
INDEX 00 27:40:72
INDEX 01 27:42:11
TRACK 11 AUDIO
TITLE “Dandelion”
PERFORMER “The Rolling Stones”
ISRC USA176710280
INDEX 00 30:16:73
INDEX 01 30:18:43
TRACK 12 AUDIO
TITLE “We Love You”
PERFORMER “The Rolling Stones”
ISRC USA176710290
INDEX 00 33:50:65
INDEX 01 33:52:06

REM GENRE Rock
REM DATE 2002
REM DISCID E00C4C10
REM COMMENT “ExactAudioCopy v1.0b3”
CATALOG 0018771962625
PERFORMER “The Rolling Stones”
TITLE “More Hot Rocks (Big Hits & Fazed Cookies) (CD 2) (96262)”
FILE “The Rolling Stones – More Hot Rocks (Big Hits & Fazed Cookies) (CD 2) (96262).flac” WAVE
TRACK 01 AUDIO
TITLE “She’s A Rainbow”
PERFORMER “The Rolling Stones”
ISRC USA176710230
INDEX 01 00:00:00
TRACK 02 AUDIO
TITLE “2000 Light Years From Home”
PERFORMER “The Rolling Stones”
ISRC USA176710260
INDEX 00 04:11:57
INDEX 01 04:13:37
INDEX 02 05:05:33
TRACK 03 AUDIO
TITLE “Child Of The Moon (Rmk)”
PERFORMER “The Rolling Stones”
ISRC USA176810120
INDEX 00 08:58:49
INDEX 01 09:00:53
TRACK 04 AUDIO
TITLE “No Expectations”
PERFORMER “The Rolling Stones”
ISRC USA176810020
INDEX 00 12:10:23
INDEX 01 12:12:05
TRACK 05 AUDIO
TITLE “Let It Bleed”
PERFORMER “The Rolling Stones”
ISRC USA176910060
INDEX 00 16:07:59
INDEX 01 16:09:23
TRACK 06 AUDIO
TITLE “What To Do”
PERFORMER “The Rolling Stones”
ISRC USA176610300
INDEX 00 21:37:70
INDEX 01 21:39:41
TRACK 07 AUDIO
TITLE “Fortune Teller”
PERFORMER “The Rolling Stones”
ISRC USA176410320
INDEX 00 24:12:34
INDEX 01 24:13:64
TRACK 08 AUDIO
TITLE “Poison Ivy (Version 1)”
PERFORMER “The Rolling Stones”
ISRC USA176410290
INDEX 00 26:31:27
INDEX 01 26:33:25
TRACK 09 AUDIO
TITLE “Everybody Needs Somebody To Love”
PERFORMER “The Rolling Stones”
ISRC USA176510010
INDEX 00 29:07:55
INDEX 01 29:10:07
TRACK 10 AUDIO
TITLE “Come On”
PERFORMER “The Rolling Stones”
ISRC USA176310010
INDEX 00 34:13:08
INDEX 01 34:15:64
TRACK 11 AUDIO
TITLE “Money”
PERFORMER “The Rolling Stones”
ISRC USA176410310
INDEX 00 36:04:15
INDEX 01 36:05:69
TRACK 12 AUDIO
TITLE “Bye Bye Johnnie”
PERFORMER “The Rolling Stones”
ISRC USA176410300
INDEX 00 38:38:07
INDEX 01 38:40:36
TRACK 13 AUDIO
TITLE “Poison Ivy (Version 2)”
PERFORMER “The Rolling Stones”
ISRC USA176310050
INDEX 00 40:50:31
INDEX 01 40:52:50
TRACK 14 AUDIO
TITLE “I’ve Been Loving You Too Long”
PERFORMER “The Rolling Stones”
ISRC USA176610340
INDEX 00 42:59:08
INDEX 01 43:01:52
TRACK 15 AUDIO
TITLE “I Can’t Be Satisfied”
PERFORMER “The Rolling Stones”
ISRC USA176510330
INDEX 00 45:55:62
INDEX 01 45:58:53
TRACK 16 AUDIO
TITLE “Long Long While”
PERFORMER “The Rolling Stones”
ISRC USA176610290
INDEX 00 49:24:60
INDEX 01 49:27:06


Leave a Reply

Your email address will not be published. Required fields are marked *

This site uses Akismet to reduce spam. Learn how your comment data is processed.