The Rolling Stones – More Hot Rocks (Big Hits & Fazed Cookies) (Japanese Edition)




No Cover available

Artist: The Rolling Stones
Year: 1972/2006
Genre: Rock
Notes: Discogs
Add. Notes: Japanese Edition
Watch Songs on: YouTube
Cover incl.: Yes
Encoder: FLAC
Bitrate: ~700 kBit/s (44.1 kHz/16 Bit/s)
Log & Cue incl.: Yes/Yes
Size: 499,7 MB
Password: “slam” (without ” “)


All Downloads/Hosters are compatible

Download 1
KatFile.com
Turbobit.net
Rapidgator.net
FileFactory.com
Download 2
KatFile.com
Turbobit.net
Rapidgator.net
FileFactory.com

Tracklist:

1-1 Tell Me 
1-2 Not Fade Away 
1-3 The Last Time 
1-4 It's All Over Now 
1-5 Good Times Bad Times 
1-6 I'm Free 
1-7 Out Of Time 
1-8 Lady Jane 
1-9 Sittin' On A Fence 
1-10 Have You Seen Your Mother, Baby, Standing In The 
Shadow? 
1-11 Dandelion 
1-12 We Love You 

2-1 She's A Rainbow 
2-2 2000 Light Years From Home 
2-3 Child Of The Moon 
2-4 No Expectations 
2-5 Let It Bleed 
2-6 What To Do 
2-7 Fortune Teller 
2-8 Poison Ivy (Version 1) 
2-9 Everybody Needs Somebody To Love 
2-10 Come On 
2-11 Money 
2-12 Bye Bye Johnny 
2-13 Poison Ivy (Version 2) 
2-14 I've Been Loving You Too Long 
2-15 I Can't Be Satisfied 
2-16 Long Long While 

EAC-Log, CUE-Sheed & NFO:

Click to open spoiler
Exact Audio Copy V1.0 beta 3 from 29. August 2011

EAC extraction logfile from 1. January 2014, 13:40

The Rolling Stones / More Hot Rocks (Big Hits & Fazed Cookies) Disc 1 (UICY-93033)

Used drive : PLEXTOR DVDR PX-891SA Adapter: 3 ID: 0

Read mode : Secure
Utilize accurate stream : Yes
Defeat audio cache : Yes
Make use of C2 pointers : No

Read offset correction : 6
Overread into Lead-In and Lead-Out : No
Fill up missing offset samples with silence : Yes
Delete leading and trailing silent blocks : No
Null samples used in CRC calculations : Yes
Used interface : Native Win32 interface for Win NT & 2000

Used output format : User Defined Encoder
Selected bitrate : 1024 kBit/s
Quality : High
Add ID3 tag : No
Command line compressor : C:\Program Files\Exact Audio Copy\Flac\flac.exe
Additional command line options : -V -8 -T “Genre=%genre%” -T “Artist=%artist%” -T “Title=%title%” -T “Album=%albumtitle%” -T “Date=%year%” -T “Tracknumber=%tracknr%” -T “Comment=%comment%” %source%

TOC of the extracted CD

Track | Start | Length | Start sector | End sector
———————————————————
1 | 0:00.00 | 3:49.50 | 0 | 17224
2 | 3:49.50 | 1:49.17 | 17225 | 25416
3 | 5:38.67 | 3:42.45 | 25417 | 42111
4 | 9:21.37 | 3:27.15 | 42112 | 57651
5 | 12:48.52 | 2:31.48 | 57652 | 69024
6 | 15:20.25 | 2:25.07 | 69025 | 79906
7 | 17:45.32 | 3:43.23 | 79907 | 96654
8 | 21:28.55 | 3:09.27 | 96655 | 110856
9 | 24:38.07 | 3:04.03 | 110857 | 124659
10 | 27:42.10 | 2:36.32 | 124660 | 136391
11 | 30:18.42 | 3:33.38 | 136392 | 152404
12 | 33:52.05 | 4:21.65 | 152405 | 172044

Range status and errors

Selected range

Filename H:\dafnaplus\1972 More Hot Rocks (Big Hits & Fazed Cookies)\Disc 1\The Rolling Stones – More Hot Rocks (Big Hits & Fazed Cookies) Disc 1 (UICY-93033).wav

Peak level 99.8 %
Extraction speed 5.4 X
Range quality 100.0 %
Test CRC A9DC983E
Copy CRC A9DC983E
Copy OK

No errors occurred

AccurateRip summary

Track 1 accurately ripped (confidence 3) [25228C29] (AR v2)
Track 2 accurately ripped (confidence 3) [4AC965CB] (AR v2)
Track 3 accurately ripped (confidence 3) [DEE18043] (AR v2)
Track 4 accurately ripped (confidence 3) [CD0CE100] (AR v2)
Track 5 accurately ripped (confidence 3) [9FADB0CB] (AR v2)
Track 6 accurately ripped (confidence 3) [56DF6D24] (AR v2)
Track 7 accurately ripped (confidence 3) [E3FA0B74] (AR v2)
Track 8 accurately ripped (confidence 3) [FE71B262] (AR v2)
Track 9 accurately ripped (confidence 3) [E57A8CC6] (AR v2)
Track 10 accurately ripped (confidence 3) [06F98020] (AR v2)
Track 11 accurately ripped (confidence 3) [644AF7BF] (AR v2)
Track 12 accurately ripped (confidence 3) [08F3D9C4] (AR v2)

All tracks accurately ripped

End of status report

==== Log checksum B52F88B1C08CADCBF457448A55E80227B5ECFCD09670DB15AAEFF0AEFA4DAF19 ====

Exact Audio Copy V1.0 beta 3 from 29. August 2011

EAC extraction logfile from 1. January 2014, 14:04

The Rolling Stones / More Hot Rocks (Big Hits & Fazed Cookies) Disc 2 (UICY-93034)

Used drive : PLEXTOR DVDR PX-891SA Adapter: 3 ID: 0

Read mode : Secure
Utilize accurate stream : Yes
Defeat audio cache : Yes
Make use of C2 pointers : No

Read offset correction : 6
Overread into Lead-In and Lead-Out : No
Fill up missing offset samples with silence : Yes
Delete leading and trailing silent blocks : No
Null samples used in CRC calculations : Yes
Used interface : Native Win32 interface for Win NT & 2000

Used output format : User Defined Encoder
Selected bitrate : 1024 kBit/s
Quality : High
Add ID3 tag : No
Command line compressor : C:\Program Files\Exact Audio Copy\Flac\flac.exe
Additional command line options : -V -8 -T “Genre=%genre%” -T “Artist=%artist%” -T “Title=%title%” -T “Album=%albumtitle%” -T “Date=%year%” -T “Tracknumber=%tracknr%” -T “Comment=%comment%” %source%

TOC of the extracted CD

Track | Start | Length | Start sector | End sector
———————————————————
1 | 0:00.00 | 4:13.37 | 0 | 19011
2 | 4:13.37 | 4:47.15 | 19012 | 40551
3 | 9:00.52 | 3:11.28 | 40552 | 54904
4 | 12:12.05 | 3:57.17 | 54905 | 72696
5 | 16:09.22 | 5:30.18 | 72697 | 97464
6 | 21:39.40 | 2:34.22 | 97465 | 109036
7 | 24:13.62 | 2:19.40 | 109037 | 119501
8 | 26:33.27 | 2:36.55 | 119502 | 131256
9 | 29:10.07 | 5:05.55 | 131257 | 154186
10 | 34:15.62 | 1:50.05 | 154187 | 162441
11 | 36:05.67 | 2:34.43 | 162442 | 174034
12 | 38:40.35 | 2:12.15 | 174035 | 183949
13 | 40:52.50 | 2:09.02 | 183950 | 193626
14 | 43:01.52 | 2:57.00 | 193627 | 206901
15 | 45:58.52 | 3:28.28 | 206902 | 222529
16 | 49:27.05 | 3:01.20 | 222530 | 236124

Range status and errors

Selected range

Filename H:\dafnaplus\1972 More Hot Rocks (Big Hits & Fazed Cookies)\Disc 2\The Rolling Stones – More Hot Rocks (Big Hits & Fazed Cookies) Disc 2 (UICY-93034).wav

Peak level 97.6 %
Extraction speed 5.8 X
Range quality 99.9 %
Test CRC 97F5A29A
Copy CRC 97F5A29A
Copy OK

No errors occurred

AccurateRip summary

Track 1 accurately ripped (confidence 3) [CAE174A6] (AR v2)
Track 2 accurately ripped (confidence 3) [1DA39F5F] (AR v2)
Track 3 accurately ripped (confidence 3) [0E571D84] (AR v2)
Track 4 accurately ripped (confidence 3) [B67E3874] (AR v2)
Track 5 accurately ripped (confidence 3) [D15F2CCC] (AR v2)
Track 6 accurately ripped (confidence 3) [D9BCC1E8] (AR v2)
Track 7 accurately ripped (confidence 3) [1ACA4AF4] (AR v2)
Track 8 accurately ripped (confidence 3) [83FA519A] (AR v2)
Track 9 accurately ripped (confidence 3) [1A6842DA] (AR v2)
Track 10 accurately ripped (confidence 3) [3FFACF85] (AR v2)
Track 11 accurately ripped (confidence 3) [AB258E7C] (AR v2)
Track 12 accurately ripped (confidence 3) [7FC48ADB] (AR v2)
Track 13 accurately ripped (confidence 3) [87F10AFA] (AR v2)
Track 14 accurately ripped (confidence 3) [30BA7252] (AR v2)
Track 15 accurately ripped (confidence 3) [C8CB1BD9] (AR v2)
Track 16 accurately ripped (confidence 3) [15FDE175] (AR v2)

All tracks accurately ripped

End of status report

==== Log checksum 5065D18CA0035BCBAC73A579635F1C3F5816F296B29B14E960313CF664C9B132 ====

REM DATE 2006
REM DISCID 8408F50C
REM COMMENT “ExactAudioCopy v1.0b3”
PERFORMER “The Rolling Stones”
TITLE “More Hot Rocks (Big Hits & Fazed Cookies) Disc 1 (UICY-93033)”
FILE “The Rolling Stones – More Hot Rocks (Big Hits & Fazed Cookies) Disc 1 (UICY-93033).flac” WAVE
TRACK 01 AUDIO
TITLE “Tell Me”
PERFORMER “The Rolling Stones”
INDEX 01 00:00:00
TRACK 02 AUDIO
TITLE “Not Fade Away”
PERFORMER “The Rolling Stones”
INDEX 00 03:47:40
INDEX 01 03:49:50
TRACK 03 AUDIO
TITLE “The Last Time”
PERFORMER “The Rolling Stones”
INDEX 00 05:37:17
INDEX 01 05:38:67
TRACK 04 AUDIO
TITLE “It’s All Over Now”
PERFORMER “The Rolling Stones”
INDEX 00 09:20:18
INDEX 01 09:21:37
TRACK 05 AUDIO
TITLE “Good Times, Bad Times”
PERFORMER “The Rolling Stones”
INDEX 00 12:47:71
INDEX 01 12:48:52
TRACK 06 AUDIO
TITLE “I’m Free”
PERFORMER “The Rolling Stones”
INDEX 00 15:18:62
INDEX 01 15:20:25
TRACK 07 AUDIO
TITLE “Out Of Time”
PERFORMER “The Rolling Stones”
INDEX 01 17:45:32
TRACK 08 AUDIO
TITLE “Lady Jane”
PERFORMER “The Rolling Stones”
INDEX 00 21:26:70
INDEX 01 21:28:55
TRACK 09 AUDIO
TITLE “Sittin’ On A Fence”
PERFORMER “The Rolling Stones”
INDEX 00 24:36:20
INDEX 01 24:38:07
TRACK 10 AUDIO
TITLE “Have You Seen Your Mother Baby, Standing In The Shadow?”
PERFORMER “The Rolling Stones”
INDEX 00 27:40:72
INDEX 01 27:42:10
TRACK 11 AUDIO
TITLE “Dandelion”
PERFORMER “The Rolling Stones”
INDEX 00 30:16:65
INDEX 01 30:18:42
TRACK 12 AUDIO
TITLE “We Love You”
PERFORMER “The Rolling Stones”
INDEX 00 33:50:66
INDEX 01 33:52:05

REM DATE 2006
REM DISCID E00C4C10
REM COMMENT “ExactAudioCopy v1.0b3”
PERFORMER “The Rolling Stones”
TITLE “More Hot Rocks (Big Hits & Fazed Cookies) Disc 2 (UICY-93034)”
FILE “The Rolling Stones – More Hot Rocks (Big Hits & Fazed Cookies) Disc 2 (UICY-93034).flac” WAVE
TRACK 01 AUDIO
TITLE “She’s A Rainbow”
PERFORMER “The Rolling Stones”
INDEX 01 00:00:00
TRACK 02 AUDIO
TITLE “2000 Light Years From Home”
PERFORMER “The Rolling Stones”
INDEX 00 04:11:56
INDEX 01 04:13:37
INDEX 02 05:05:32
TRACK 03 AUDIO
TITLE “Child Of The Moon (Rmk)”
PERFORMER “The Rolling Stones”
INDEX 00 08:58:47
INDEX 01 09:00:52
TRACK 04 AUDIO
TITLE “No Expectations”
PERFORMER “The Rolling Stones”
INDEX 00 12:10:22
INDEX 01 12:12:05
TRACK 05 AUDIO
TITLE “Let It Bleed”
PERFORMER “The Rolling Stones”
INDEX 00 15:15:06
INDEX 01 16:09:22
TRACK 06 AUDIO
TITLE “What To Do”
PERFORMER “The Rolling Stones”
INDEX 00 21:37:50
INDEX 01 21:39:40
TRACK 07 AUDIO
TITLE “Fortune Teller”
PERFORMER “The Rolling Stones”
INDEX 00 24:12:32
INDEX 01 24:13:62
TRACK 08 AUDIO
TITLE “Poison Ivy (Version 1)”
PERFORMER “The Rolling Stones”
INDEX 00 26:31:27
INDEX 01 26:33:27
TRACK 09 AUDIO
TITLE “Everybody Needs Somebody To Love”
PERFORMER “The Rolling Stones”
INDEX 00 29:07:55
INDEX 01 29:10:07
TRACK 10 AUDIO
TITLE “Come On”
PERFORMER “The Rolling Stones”
INDEX 00 34:13:07
INDEX 01 34:15:62
TRACK 11 AUDIO
TITLE “Money”
PERFORMER “The Rolling Stones”
INDEX 00 36:04:15
INDEX 01 36:05:67
TRACK 12 AUDIO
TITLE “Bye Bye Johnnie”
PERFORMER “The Rolling Stones”
INDEX 00 38:38:07
INDEX 01 38:40:35
TRACK 13 AUDIO
TITLE “Poison Ivy (Version 2)”
PERFORMER “The Rolling Stones”
INDEX 00 40:50:30
INDEX 01 40:52:50
TRACK 14 AUDIO
TITLE “I’ve Been Loving You Too Long”
PERFORMER “The Rolling Stones”
INDEX 00 42:59:07
INDEX 01 43:01:52
TRACK 15 AUDIO
TITLE “I Can’t Be Satisfied”
PERFORMER “The Rolling Stones”
INDEX 00 45:55:62
INDEX 01 45:58:52
TRACK 16 AUDIO
TITLE “Long Long While”
PERFORMER “The Rolling Stones”
INDEX 00 49:24:60
INDEX 01 49:27:05


0

Publication author

offline 14 hours

Chaos

3
Comments: 4Publics: 3418Registration: 02-02-2019
Spread the Download

Leave a Reply

Your email address will not be published. Required fields are marked *

Enter the text from the image below
 

This site uses Akismet to reduce spam. Learn how your comment data is processed.