The Rolling Stones – More Hot Rocks (Big Hits & Fazed Cookies) 2 (Japanese Edition)




Artist: The Rolling Stones
Year: 1972/1989
Genre: Rock
Notes: Discogs
Add. Notes: Japanese Edition
Cover incl.: Yes
Encoder: FLAC
Bitrate: ~800 kBit/s (44.1 kHz/16 Bit/s)
Log & Cue incl.: Yes
Size: 265 MB
Password: “slam” (without ” “)


All Downloads/Hosters are compatible

Download 1
KatFile.com
Turbobit.net
FileFactory.com
Rapidgator.net
Download 2
KatFile.com
Turbobit.net
FileFactory.com
Rapidgator.net

Tracklist:

1 - What To Do - 2:31
2 - Money (That's What I Want) - 
2:28
3 - Come On - 1:46
4 - Fortune Teller - 2:04
5 - Have You Seen Your Mother, 
Baby, Standing In The 
Shadow? - 2:33
6 - Dandelion - 3:28
7 - We Love You - 4:16
8 - I Can't Be Satisfied - 3:21
9 - Lady Jane - 3:06
10 - Sittin' On A Fence - 3:02
11 - 2.000 Light Years From Home - 
4:44
12 - Let It Bleed - 5:29

EAC-Log, CUE-Sheed & NFO:

Click to open spoiler
Exact Audio Copy V1.3 from 2. September 2016

EAC extraction logfile from 23. August 2017, 16:30

The Rolling Stones / More Hot Rocks 2 [P25L 25050]

Used drive : HL-DT-STDVD+-RW GH50N Adapter: 1 ID: 0

Read mode : Secure
Utilize accurate stream : Yes
Defeat audio cache : Yes
Make use of C2 pointers : No

Read offset correction : 667
Overread into Lead-In and Lead-Out : No
Fill up missing offset samples with silence : Yes
Delete leading and trailing silent blocks : No
Null samples used in CRC calculations : Yes
Used interface : Native Win32 interface for Win NT & 2000

Used output format : User Defined Encoder
Selected bitrate : 768 kBit/s
Quality : High
Add ID3 tag : No
Command line compressor : C:\Program Files (x86)\Exact Audio Copy\FLAC\FLAC.EXE
Additional command line options : -V -8 -T “Date=%year%” -T “Genre=%genre%” %source%

TOC of the extracted CD

Track | Start | Length | Start sector | End sector
———————————————————
1 | 0:00.37 | 2:36.63 | 37 | 11799
2 | 2:37.25 | 2:36.25 | 11800 | 23524
3 | 5:13.50 | 1:52.60 | 23525 | 31984
4 | 7:06.35 | 2:21.72 | 31985 | 42631
5 | 9:28.32 | 2:39.33 | 42632 | 54589
6 | 12:07.65 | 3:35.45 | 54590 | 70759
7 | 15:43.35 | 4:26.70 | 70760 | 90779
8 | 20:10.30 | 3:33.17 | 90780 | 106771
9 | 23:43.47 | 3:12.58 | 106772 | 121229
10 | 26:56.30 | 3:08.70 | 121230 | 135399
11 | 30:05.25 | 4:51.20 | 135400 | 157244
12 | 34:56.45 | 5:29.25 | 157245 | 181944

Range status and errors

Selected range

Filename I:\RS [London]\Japan\1972 – More Hot Rocks 2 [P25L 25050]\The Rolling Stones – More Hot Rocks 2 [P25L 25050].wav

Peak level 100.0 %
Extraction speed 2.8 X
Range quality 99.9 %
Test CRC A804F2A6
Copy CRC A804F2A6
Copy OK

No errors occurred

AccurateRip summary

Track 1 accurately ripped (confidence 1) [33039340] (AR v2)
Track 2 accurately ripped (confidence 1) [8F3E18E7] (AR v2)
Track 3 accurately ripped (confidence 1) [0CE960AD] (AR v2)
Track 4 accurately ripped (confidence 1) [B40060B7] (AR v2)
Track 5 accurately ripped (confidence 2) [12941279] (AR v1)
Track 6 accurately ripped (confidence 1) [BFDEC19B] (AR v2)
Track 7 accurately ripped (confidence 1) [7B7732DF] (AR v2)
Track 8 accurately ripped (confidence 1) [6553CBC0] (AR v2)
Track 9 accurately ripped (confidence 1) [1566A6EE] (AR v2)
Track 10 accurately ripped (confidence 2) [63778ED9] (AR v1)
Track 11 accurately ripped (confidence 1) [21DEE827] (AR v2)
Track 12 accurately ripped (confidence 1) [2E043231] (AR v2)

All tracks accurately ripped

End of status report

—- CUETools DB Plugin V2.1.6

[CTDB TOCID: oyhkr7z2WB55F18sK8KDrYgdtt4-] found
Submit result: oyhkr7z2WB55F18sK8KDrYgdtt4- has been confirmed
Track | CTDB Status
1 | (2/2) Accurately ripped
2 | (2/2) Accurately ripped
3 | (2/2) Accurately ripped
4 | (2/2) Accurately ripped
5 | (2/2) Accurately ripped
6 | (2/2) Accurately ripped
7 | (2/2) Accurately ripped
8 | (2/2) Accurately ripped
9 | (2/2) Accurately ripped
10 | (2/2) Accurately ripped
11 | (2/2) Accurately ripped
12 | (2/2) Accurately ripped

==== Log checksum FF5A0FCD681E0255935226DB9D160D4A3CCA5753CB1428C1B72A397AFA93C3CD ====

REM GENRE Rock
REM DATE 1972
REM DISCID 9D09790C
REM COMMENT “ExactAudioCopy v1.3”
PERFORMER “The Rolling Stones”
TITLE “More Hot Rocks 2 [P25L 25050]”
REM COMPOSER “”
FILE “The Rolling Stones – More Hot Rocks 2 [P25L 25050].flac” WAVE
TRACK 01 AUDIO
TITLE “What To Do”
PERFORMER “The Rolling Stones”
REM COMPOSER “”
INDEX 00 00:00:00
INDEX 01 00:00:37
TRACK 02 AUDIO
TITLE “Money (That’s What I Want)”
PERFORMER “The Rolling Stones”
REM COMPOSER “”
INDEX 00 02:33:25
INDEX 01 02:37:25
TRACK 03 AUDIO
TITLE “Come On”
PERFORMER “The Rolling Stones”
REM COMPOSER “”
INDEX 00 05:09:02
INDEX 01 05:13:50
TRACK 04 AUDIO
TITLE “Fortune Teller”
PERFORMER “The Rolling Stones”
REM COMPOSER “”
INDEX 00 07:01:51
INDEX 01 07:06:35
TRACK 05 AUDIO
TITLE “Have You Seen Your Mother, Baby, Standing In The Shadow?”
PERFORMER “The Rolling Stones”
REM COMPOSER “”
INDEX 00 09:24:14
INDEX 01 09:28:32
TRACK 06 AUDIO
TITLE “Dandelion”
PERFORMER “The Rolling Stones”
REM COMPOSER “”
INDEX 00 12:02:38
INDEX 01 12:07:65
TRACK 07 AUDIO
TITLE “We Love You”
PERFORMER “The Rolling Stones”
REM COMPOSER “”
INDEX 00 15:38:23
INDEX 01 15:43:35
TRACK 08 AUDIO
TITLE “I Can’t Be Satisfied”
PERFORMER “The Rolling Stones”
REM COMPOSER “”
INDEX 00 20:05:14
INDEX 01 20:10:30
TRACK 09 AUDIO
TITLE “Lady Jane”
PERFORMER “The Rolling Stones”
REM COMPOSER “”
INDEX 00 23:37:41
INDEX 01 23:43:47
TRACK 10 AUDIO
TITLE “Sitting On A Fence”
PERFORMER “The Rolling Stones”
REM COMPOSER “”
INDEX 00 26:51:68
INDEX 01 26:56:30
TRACK 11 AUDIO
TITLE “2,000 Light Years From Home”
PERFORMER “The Rolling Stones”
REM COMPOSER “”
INDEX 00 29:59:58
INDEX 01 30:05:25
TRACK 12 AUDIO
TITLE “Let It Bleed”
PERFORMER “The Rolling Stones”
REM COMPOSER “”
INDEX 00 34:51:39
INDEX 01 34:56:45


Leave a Reply

Your email address will not be published. Required fields are marked *

This site uses Akismet to reduce spam. Learn how your comment data is processed.