The Rolling Stones – More Hot Rocks (Big Hits And Fazed Cookies) (Remastered)




Artist: The Rolling Stones
Year: 1972/1986
Genre: Rock
Notes: Discogs
Add. Notes: Remastered
Cover incl.: Yes
Encoder: FLAC
Bitrate: ~700 kBit/s (44.1 kHz/16 Bit/s)
Log & Cue incl.: Yes
Size: 517,22 MB
Password: “slam” (without ” “)


All Downloads/Hosters are compatible

Download 1
Turbobit.net
Rapidgator.net
KatFile.com
UploadRar.com
Download 2
Turbobit.net
Rapidgator.net
KatFile.com
UploadRar.com

Tracklist:

1. Tell Me
2. Not Fade Away 
3. The Last Time
4. It's All Over Now
5. Good Times Bad Times
6. I'm Free
7. Out Of Time 
8. Lady Jane
9. Sittin' On A Fence
10. Have You Seen Your Mother Baby, Standing In The 
Shadow?
11. Dandelion. 
12. We Love You. 
13. She's A Rainbow
14. 2000 Light Years From Home
15. Child Of The Moon
16. No Expectations
17. Let It Bleed
18. What To Do
19. Money
20. Come On
21. Fortune Teller
22. Poison Ivy
23. Bye Bye Johnnie
24. I Can't Be Satisfied
25. Long, Long While

EAC-Log, CUE-Sheed & NFO:

Click to open spoiler
Exact Audio Copy V1.3 from 2. September 2016

EAC extraction logfile from 2. February 2018, 19:12

The Rolling Stones / More Hot Rocks (Disc 1) (62672)

Used drive : PLEXTOR DVDR PX-891SA Adapter: 1 ID: 0

Read mode : Secure
Utilize accurate stream : Yes
Defeat audio cache : Yes
Make use of C2 pointers : No

Read offset correction : 6
Overread into Lead-In and Lead-Out : No
Fill up missing offset samples with silence : Yes
Delete leading and trailing silent blocks : No
Null samples used in CRC calculations : Yes
Used interface : Native Win32 interface for Win NT & 2000

Used output format : User Defined Encoder
Selected bitrate : 768 kBit/s
Quality : High
Add ID3 tag : No
Command line compressor : C:\Program Files (x86)\Exact Audio Copy\Flac\flac.exe
Additional command line options : -V -8 -T “Genre=%genre%” -T “Artist=%artist%” -T “Title=%title%” -T “Album=%albumtitle%” -T “Date=%year%” -T “Tracknumber=%tracknr%” -T “Comment=%comment%” %source%

TOC of the extracted CD

Track | Start | Length | Start sector | End sector
———————————————————
1 | 0:00.00 | 3:51.27 | 0 | 17351
2 | 3:51.27 | 1:51.13 | 17352 | 25689
3 | 5:42.40 | 3:43.37 | 25690 | 42451
4 | 9:26.02 | 3:31.03 | 42452 | 58279
5 | 12:57.05 | 2:35.07 | 58280 | 69911
6 | 15:32.12 | 2:28.63 | 69912 | 81074
7 | 18:01.00 | 3:46.10 | 81075 | 98034
8 | 21:47.10 | 3:12.00 | 98035 | 112434
9 | 24:59.10 | 3:06.02 | 112435 | 126386
10 | 28:05.12 | 2:36.65 | 126387 | 138151
11 | 30:42.02 | 3:35.08 | 138152 | 154284
12 | 34:17.10 | 4:21.65 | 154285 | 173924

Range status and errors

Selected range

Filename H:\dafnaplus\Rolling Stones – More Hot Rocks\Disc 1\The Rolling Stones – More Hot Rocks (Disc 1) (62672).wav

Peak level 100.0 %
Extraction speed 7.1 X
Range quality 99.9 %
Test CRC 2D278228
Copy CRC 2D278228
Copy OK

No errors occurred

AccurateRip summary

Track 1 accurately ripped (confidence 2) [F3E99232] (AR v2)
Track 2 accurately ripped (confidence 2) [7EDEB797] (AR v2)
Track 3 accurately ripped (confidence 2) [DB4B24CD] (AR v2)
Track 4 accurately ripped (confidence 2) [C2AFB9C9] (AR v2)
Track 5 accurately ripped (confidence 2) [4750067F] (AR v2)
Track 6 accurately ripped (confidence 2) [51CDC36B] (AR v2)
Track 7 accurately ripped (confidence 2) [3DB29605] (AR v2)
Track 8 accurately ripped (confidence 2) [E4D92594] (AR v2)
Track 9 accurately ripped (confidence 2) [7C97E37B] (AR v2)
Track 10 accurately ripped (confidence 2) [AC0E9FDB] (AR v2)
Track 11 accurately ripped (confidence 2) [D1314E32] (AR v2)
Track 12 accurately ripped (confidence 2) [9E6B5C36] (AR v2)

All tracks accurately ripped

End of status report

—- CUETools DB Plugin V2.1.6

[CTDB TOCID: JTG_YsHc50y805lMiLog6tNWWSE-] found
Submit result: already submitted
Track | CTDB Status
1 | (28/28) Accurately ripped
2 | (27/28) Accurately ripped
3 | (28/28) Accurately ripped
4 | (27/28) Accurately ripped
5 | (28/28) Accurately ripped
6 | (28/28) Accurately ripped
7 | (28/28) Accurately ripped
8 | (28/28) Accurately ripped
9 | (27/28) Accurately ripped
10 | (28/28) Accurately ripped
11 | (28/28) Accurately ripped
12 | (28/28) Accurately ripped

==== Log checksum 98BBB6DCED5F21E5AF07E052FCF2BCB2C59708C24AC109CB3067875FC15F826E ====

Exact Audio Copy V1.3 from 2. September 2016

EAC extraction logfile from 2. February 2018, 18:46

The Rolling Stones / More Hot Rocks (Disc 2) (62672)

Used drive : PLEXTOR DVDR PX-891SA Adapter: 1 ID: 0

Read mode : Secure
Utilize accurate stream : Yes
Defeat audio cache : Yes
Make use of C2 pointers : No

Read offset correction : 6
Overread into Lead-In and Lead-Out : No
Fill up missing offset samples with silence : Yes
Delete leading and trailing silent blocks : No
Null samples used in CRC calculations : Yes
Used interface : Native Win32 interface for Win NT & 2000

Used output format : User Defined Encoder
Selected bitrate : 768 kBit/s
Quality : High
Add ID3 tag : No
Command line compressor : C:\Program Files (x86)\Exact Audio Copy\Flac\flac.exe
Additional command line options : -V -8 -T “Genre=%genre%” -T “Artist=%artist%” -T “Title=%title%” -T “Album=%albumtitle%” -T “Date=%year%” -T “Tracknumber=%tracknr%” -T “Comment=%comment%” %source%

TOC of the extracted CD

Track | Start | Length | Start sector | End sector
———————————————————
1 | 0:00.00 | 4:37.72 | 0 | 20846
2 | 4:37.72 | 4:48.25 | 20847 | 42471
3 | 9:26.22 | 3:08.38 | 42472 | 56609
4 | 12:34.60 | 4:03.27 | 56610 | 74861
5 | 16:38.12 | 5:31.30 | 74862 | 99716
6 | 22:09.42 | 2:31.43 | 99717 | 111084
7 | 24:41.10 | 2:34.52 | 111085 | 122686
8 | 27:15.62 | 1:51.53 | 122687 | 131064
9 | 29:07.40 | 2:10.22 | 131065 | 140836
10 | 31:17.62 | 2:36.53 | 140837 | 152589
11 | 33:54.40 | 2:11.32 | 152590 | 162446
12 | 36:05.72 | 3:28.23 | 162447 | 178069
13 | 39:34.20 | 2:59.55 | 178070 | 191549

Range status and errors

Selected range

Filename H:\dafnaplus\Rolling Stones – More Hot Rocks\Disc 2\The Rolling Stones – More Hot Rocks (Disc 2) (62672).wav

Peak level 100.0 %
Extraction speed 7.3 X
Range quality 99.9 %
Test CRC 4442BDEC
Copy CRC 4442BDEC
Copy OK

No errors occurred

AccurateRip summary

Track 1 accurately ripped (confidence 20) [93795879] (AR v2)
Track 2 accurately ripped (confidence 20) [ABFB10D5] (AR v2)
Track 3 accurately ripped (confidence 20) [4DA35DC2] (AR v2)
Track 4 accurately ripped (confidence 21) [A07C2511] (AR v2)
Track 5 accurately ripped (confidence 20) [E37FC900] (AR v2)
Track 6 accurately ripped (confidence 20) [AE06DAB9] (AR v2)
Track 7 accurately ripped (confidence 20) [D8A317AC] (AR v2)
Track 8 accurately ripped (confidence 20) [3DDC1B1B] (AR v2)
Track 9 accurately ripped (confidence 20) [5F4222F6] (AR v2)
Track 10 accurately ripped (confidence 20) [56E8CC51] (AR v2)
Track 11 accurately ripped (confidence 20) [DB20FD24] (AR v2)
Track 12 accurately ripped (confidence 20) [DC62FB72] (AR v2)
Track 13 accurately ripped (confidence 20) [D9E3596F] (AR v2)

All tracks accurately ripped

End of status report

—- CUETools DB Plugin V2.1.6

[CTDB TOCID: nWWl6eEscbh_kxul3LJKD.fQ9OA-] found
Submit result: already submitted
Track | CTDB Status
1 | (28/30) Accurately ripped
2 | (30/30) Accurately ripped
3 | (30/30) Accurately ripped
4 | (30/30) Accurately ripped
5 | (30/30) Accurately ripped
6 | (30/30) Accurately ripped
7 | (30/30) Accurately ripped
8 | (30/30) Accurately ripped
9 | (30/30) Accurately ripped
10 | (30/30) Accurately ripped
11 | (30/30) Accurately ripped
12 | (29/30) Accurately ripped
13 | (30/30) Accurately ripped

==== Log checksum 2C15CF4EA87AF1E076127409CF7BE21978D313C7767CC1781D5D4EEACFB56FC6 ====

REM GENRE Rock
REM DATE 1986
REM DISCID A6090F0C
REM COMMENT “ExactAudioCopy v1.3”
PERFORMER “The Rolling Stones”
TITLE “More Hot Rocks (Disc 1) (62672)”
REM COMPOSER “”
FILE “The Rolling Stones – More Hot Rocks (Disc 1) (62672).flac” WAVE
TRACK 01 AUDIO
TITLE “Tell Me”
PERFORMER “The Rolling Stones”
REM COMPOSER “”
INDEX 01 00:00:00
TRACK 02 AUDIO
TITLE “Not Fade Away”
PERFORMER “The Rolling Stones”
REM COMPOSER “”
INDEX 00 03:47:42
INDEX 01 03:51:27
TRACK 03 AUDIO
TITLE “The Last Time”
PERFORMER “The Rolling Stones”
REM COMPOSER “”
INDEX 00 05:40:10
INDEX 01 05:42:40
TRACK 04 AUDIO
TITLE “It’s All Over Now”
PERFORMER “The Rolling Stones”
REM COMPOSER “”
INDEX 00 09:23:00
INDEX 01 09:26:02
TRACK 05 AUDIO
TITLE “Good Times Bad Times”
PERFORMER “The Rolling Stones”
REM COMPOSER “”
INDEX 00 12:53:65
INDEX 01 12:57:05
TRACK 06 AUDIO
TITLE “I’m Free”
PERFORMER “The Rolling Stones”
REM COMPOSER “”
INDEX 00 15:29:32
INDEX 01 15:32:12
TRACK 07 AUDIO
TITLE “Out Of Time”
PERFORMER “The Rolling Stones”
REM COMPOSER “”
INDEX 00 17:57:65
INDEX 01 18:01:00
TRACK 08 AUDIO
TITLE “Lady Jane”
PERFORMER “The Rolling Stones”
REM COMPOSER “”
INDEX 00 21:43:67
INDEX 01 21:47:10
TRACK 09 AUDIO
TITLE “Sittin’ On A Fence”
PERFORMER “The Rolling Stones”
REM COMPOSER “”
INDEX 00 24:56:25
INDEX 01 24:59:10
TRACK 10 AUDIO
TITLE “Have You Seen Your Mother Baby, Standing In The Shadow?”
PERFORMER “The Rolling Stones”
REM COMPOSER “”
INDEX 00 28:02:05
INDEX 01 28:05:12
TRACK 11 AUDIO
TITLE “Dandelion”
PERFORMER “The Rolling Stones”
REM COMPOSER “”
INDEX 00 30:39:10
INDEX 01 30:42:02
TRACK 12 AUDIO
TITLE “We Love You”
PERFORMER “The Rolling Stones”
REM COMPOSER “”
INDEX 00 34:13:50
INDEX 01 34:17:10

REM GENRE Rock
REM DATE 1986
REM DISCID BE09FA0D
REM COMMENT “ExactAudioCopy v1.3”
PERFORMER “The Rolling Stones”
TITLE “More Hot Rocks (Disc 2) (62672)”
REM COMPOSER “”
FILE “The Rolling Stones – More Hot Rocks (Disc 2) (62672).flac” WAVE
TRACK 01 AUDIO
TITLE “She’s a Rainbow”
PERFORMER “The Rolling Stones”
REM COMPOSER “”
INDEX 01 00:00:00
TRACK 02 AUDIO
TITLE “2000 Light Years From Home”
PERFORMER “The Rolling Stones”
REM COMPOSER “”
INDEX 00 04:35:15
INDEX 01 04:37:72
TRACK 03 AUDIO
TITLE “Child Of The Moon”
PERFORMER “The Rolling Stones”
REM COMPOSER “”
INDEX 00 09:23:47
INDEX 01 09:26:22
TRACK 04 AUDIO
TITLE “No Expectations”
PERFORMER “The Rolling Stones”
REM COMPOSER “”
INDEX 00 12:32:12
INDEX 01 12:34:60
TRACK 05 AUDIO
TITLE “Let It Bleed”
PERFORMER “The Rolling Stones”
REM COMPOSER “”
INDEX 00 16:35:15
INDEX 01 16:38:12
TRACK 06 AUDIO
TITLE “What To Do”
PERFORMER “The Rolling Stones”
REM COMPOSER “”
INDEX 00 22:07:22
INDEX 01 22:09:42
TRACK 07 AUDIO
TITLE “Money”
PERFORMER “The Rolling Stones”
REM COMPOSER “”
INDEX 00 24:37:57
INDEX 01 24:41:10
TRACK 08 AUDIO
TITLE “Come On”
PERFORMER “The Rolling Stones”
REM COMPOSER “”
INDEX 00 27:12:72
INDEX 01 27:15:62
TRACK 09 AUDIO
TITLE “Fortune Teller”
PERFORMER “The Rolling Stones”
REM COMPOSER “”
INDEX 00 29:05:10
INDEX 01 29:07:40
TRACK 10 AUDIO
TITLE “Poison Ivy”
PERFORMER “The Rolling Stones”
REM COMPOSER “”
INDEX 00 31:14:62
INDEX 01 31:17:62
TRACK 11 AUDIO
TITLE “Bye Bye Johnnie”
PERFORMER “The Rolling Stones”
REM COMPOSER “”
INDEX 00 33:51:12
INDEX 01 33:54:40
TRACK 12 AUDIO
TITLE “I Can’t Be Satisfied”
PERFORMER “The Rolling Stones”
REM COMPOSER “”
INDEX 00 36:03:47
INDEX 01 36:05:72
TRACK 13 AUDIO
TITLE “Long Long While”
PERFORMER “The Rolling Stones”
REM COMPOSER “”
INDEX 00 39:31:52
INDEX 01 39:34:20


Leave a Reply

Your email address will not be published. Required fields are marked *

This site uses Akismet to reduce spam. Learn how your comment data is processed.