The Rolling Stones – Metamorphosis (Remastered)




Artist: The Rolling Stones
Year: 1975/2002
Genre: Rock
Notes: Discogs
Add. Notes: Remastered
Cover incl.: Yes
Encoder: FLAC
Bitrate: ~900 kBit/s (44.1 kHz/16 Bit/s)
Log & Cue incl.: Yes
Size: 323,5 MB
Password: “slam” (without ” “)


All Downloads/Hosters are compatible

Download 1
Turbobit.net
KatFile.com
Rapidgator.net
Usersdrive.com
Download 2
Turbobit.net
KatFile.com
Rapidgator.net
Usersdrive.com

Tracklist:

1 - Out Of Time - 3:22
2 - Don't Lie To Me - 2:02
3 - Somethings Just Stick In Your Mind - 2:27
4 - Each And Every Day Of The Year - 2:49
5 - Heart Of Stone - 3:48
6 - I'd Much Rather Be With The Boys - 2:12
7 - (Walkin' Thru The) Sleepy City - 2:52
8 - We're Wastin' Time - 2:44
9 - Try A Little Harder - 2:19
10 - I Don't Know Why - 3:02
11 - If You Let Me - 3:18
12 - Jiving Sister Fanny - 3:25
13 - Downtown Suzie - 3:53
14 - Family - 4:06
15 - Memo From Turner - 2:46
16 - I'm Going Down - 2:52

EAC-Log, CUE-Sheed & NFO:

Click to open spoiler
Exact Audio Copy V1.0 beta 3 from 29. August 2011

EAC extraction logfile from 8. July 2013, 8:37

The Rolling Stones / Metamorphosis [90062]

Used drive : _NEC DVD+-RW ND-6500A Adapter: 1 ID: 0

Read mode : Secure
Utilize accurate stream : Yes
Defeat audio cache : Yes
Make use of C2 pointers : No

Read offset correction : 48
Overread into Lead-In and Lead-Out : No
Fill up missing offset samples with silence : Yes
Delete leading and trailing silent blocks : No
Null samples used in CRC calculations : Yes
Used interface : Native Win32 interface for Win NT & 2000

Used output format : User Defined Encoder
Selected bitrate : 768 kBit/s
Quality : High
Add ID3 tag : No
Command line compressor : C:\Program Files\Exact Audio Copy\FLAC\FLAC.EXE
Additional command line options : -V -8 -T “Date=%year%” -T “Genre=%genre%” %source%

TOC of the extracted CD

Track | Start | Length | Start sector | End sector
———————————————————
1 | 0:00.00 | 3:22.52 | 0 | 15201
2 | 3:22.52 | 2:02.28 | 15202 | 24379
3 | 5:25.05 | 2:27.27 | 24380 | 35431
4 | 7:52.32 | 2:49.20 | 35432 | 48126
5 | 10:41.52 | 3:48.20 | 48127 | 65246
6 | 14:29.72 | 2:12.40 | 65247 | 75186
7 | 16:42.37 | 2:52.17 | 75187 | 88103
8 | 19:34.54 | 2:44.00 | 88104 | 100403
9 | 22:18.54 | 2:19.43 | 100404 | 110871
10 | 24:38.22 | 3:02.58 | 110872 | 124579
11 | 27:41.05 | 3:18.57 | 124580 | 139486
12 | 30:59.62 | 3:25.18 | 139487 | 154879
13 | 34:25.05 | 3:53.05 | 154880 | 172359
14 | 38:18.10 | 4:06.17 | 172360 | 190826
15 | 42:24.27 | 2:46.60 | 190827 | 203336
16 | 45:11.12 | 2:52.38 | 203337 | 216274

Range status and errors

Selected range

Filename E:\RUTRA\SACD\1975 – Metamorphosis\The Rolling Stones – Metamorphosis [90062].wav

Peak level 99.8 %
Extraction speed 3.9 X
Range quality 100.0 %
Test CRC 5AF2D4BA
Copy CRC 5AF2D4BA
Copy OK

No errors occurred

AccurateRip summary

Track 1 accurately ripped (confidence 9) [0E35C107] (AR v2)
Track 2 accurately ripped (confidence 8) [4587686E] (AR v2)
Track 3 accurately ripped (confidence 8) [1DD4A348] (AR v2)
Track 4 accurately ripped (confidence 8) [9BF1D896] (AR v2)
Track 5 accurately ripped (confidence 8) [7AB782C7] (AR v2)
Track 6 accurately ripped (confidence 8) [EE6FD4BA] (AR v2)
Track 7 accurately ripped (confidence 8) [FF66CD9B] (AR v2)
Track 8 accurately ripped (confidence 8) [D1972A3A] (AR v2)
Track 9 accurately ripped (confidence 8) [FD0409A7] (AR v2)
Track 10 accurately ripped (confidence 8) [E896192F] (AR v2)
Track 11 accurately ripped (confidence 8) [C4432E2A] (AR v2)
Track 12 accurately ripped (confidence 8) [2F6C87D9] (AR v2)
Track 13 accurately ripped (confidence 8) [6D12291A] (AR v2)
Track 14 accurately ripped (confidence 8) [8246078F] (AR v2)
Track 15 accurately ripped (confidence 8) [07A551F4] (AR v2)
Track 16 accurately ripped (confidence 8) [653AE477] (AR v2)

All tracks accurately ripped

End of status report

==== Log checksum 529E66B1D8279213B0C4103525704E69F50E4FE294D2DBCB1A290591305E2732 ====

REM GENRE Rock
REM DATE 1975
REM DISCID BB0B4310
REM COMMENT “ExactAudioCopy v1.0b3”
PERFORMER “The Rolling Stones”
TITLE “Metamorphosis [90062]”
FILE “The Rolling Stones – Metamorphosis [90062].flac” WAVE
TRACK 01 AUDIO
TITLE “Out Of Time”
PERFORMER “The Rolling Stones”
INDEX 01 00:00:00
TRACK 02 AUDIO
TITLE “Don’t Lie To Me”
PERFORMER “The Rolling Stones”
INDEX 00 03:22:34
INDEX 01 03:22:52
TRACK 03 AUDIO
TITLE “Some Things Just Stick In Your Mind”
PERFORMER “The Rolling Stones”
INDEX 00 05:23:05
INDEX 01 05:25:05
TRACK 04 AUDIO
TITLE “Each And Every Day Of The Year”
PERFORMER “The Rolling Stones”
INDEX 00 07:50:50
INDEX 01 07:52:32
TRACK 05 AUDIO
TITLE “Heart Of Stone”
PERFORMER “The Rolling Stones”
INDEX 00 10:40:07
INDEX 01 10:41:52
TRACK 06 AUDIO
TITLE “I’d Much Rather Be With The Boys”
PERFORMER “The Rolling Stones”
INDEX 00 14:28:62
INDEX 01 14:29:72
TRACK 07 AUDIO
TITLE “(Walkin’ Thru The) Sleepy City”
PERFORMER “The Rolling Stones”
INDEX 00 16:41:37
INDEX 01 16:42:37
TRACK 08 AUDIO
TITLE “We’re Wastin’ Time”
PERFORMER “The Rolling Stones”
INDEX 00 19:33:10
INDEX 01 19:34:54
TRACK 09 AUDIO
TITLE “Try A Little Harder”
PERFORMER “The Rolling Stones”
INDEX 00 22:16:54
INDEX 01 22:18:54
TRACK 10 AUDIO
TITLE “I Don’t Know Why aka Don’t Know Why I Love You”
PERFORMER “The Rolling Stones”
INDEX 00 24:36:00
INDEX 01 24:38:22
TRACK 11 AUDIO
TITLE “If You Let Me”
PERFORMER “The Rolling Stones”
INDEX 00 27:38:70
INDEX 01 27:41:05
TRACK 12 AUDIO
TITLE “Jiving Sister Fanny”
PERFORMER “The Rolling Stones”
INDEX 00 30:57:50
INDEX 01 30:59:62
TRACK 13 AUDIO
TITLE “Downtown Suzie”
PERFORMER “The Rolling Stones”
INDEX 00 34:23:34
INDEX 01 34:25:05
TRACK 14 AUDIO
TITLE “Family”
PERFORMER “The Rolling Stones”
INDEX 00 38:17:10
INDEX 01 38:18:10
TRACK 15 AUDIO
TITLE “Memo From Turner”
PERFORMER “The Rolling Stones”
INDEX 00 42:22:62
INDEX 01 42:24:27
TRACK 16 AUDIO
TITLE “I’m Going Down”
PERFORMER “The Rolling Stones”
INDEX 00 45:09:27
INDEX 01 45:11:12


Leave a Reply

Your email address will not be published. Required fields are marked *

This site uses Akismet to reduce spam. Learn how your comment data is processed.